<?xml version="1.0" standalone="no"?>
<!DOCTYPE svg PUBLIC "-//W3C//DTD SVG 1.1//EN" "http://www.w3.org/Graphics/SVG/1.1/DTD/svg11.dtd" >
<svg xmlns="http://www.w3.org/2000/svg">
<metadata>
This is a custom SVG webfont generated by Font Squirrel.
Copyright   : Copyright c ShyFonts Type Foundry 2000 All rights reserved
Designer    : ShyFonts Type Foundry
Foundry URL : httpwwwshyfontscom
</metadata>
<defs>
<font id="webfont8QmfgkZg" horiz-adv-x="1327" >
<font-face units-per-em="2048" ascent="1638" descent="-410" />
<missing-glyph horiz-adv-x="569" />
<glyph unicode=" "  horiz-adv-x="569" />
<glyph unicode="&#x09;" horiz-adv-x="569" />
<glyph unicode="&#xa0;" horiz-adv-x="569" />
<glyph unicode="!" horiz-adv-x="503" d="M80 59l10 70q2 4 3 19.5t1 21.5q6 39 33 71.5t70 32.5q61 0 61 -84q0 -68 -27 -122q-37 -70 -92 -70q-59 0 -59 61zM125 528q0 59 31 213l77 369q8 61 50 188q37 78 102 78q57 0 57 -78q0 -86 -39 -235q-57 -219 -59 -229q-10 -96 -45 -259q-37 -109 -123 -108 q-51 0 -51 61z" />
<glyph unicode="&#x22;" horiz-adv-x="946" d="M229 1221q0 53 33 94q35 45 84 45q70 0 70 -143q0 -8 -1 -42t-1 -59v-102q0 -43 -4 -72q-6 -41 -41 -76q-33 -33 -78 -32.5t-53 59.5q-4 29 -5 186q0 41 -2 72t-2 70zM535 971q0 207 16 289q22 117 117 116q74 0 73 -90q0 -174 -28 -301q-29 -117 -109 -117 q-69 1 -69 103z" />
<glyph unicode="#" horiz-adv-x="1605" d="M98 979q0 94 90 129q55 22 142 31q100 8 143 14q6 164 117 164q61 0 61 -86q0 -31 -2 -53q291 43 389 53q6 178 113 178q61 0 61 -76q0 -10 -6 -84q137 16 183 17q61 0 61 -66q0 -90 -90 -119q-6 -2 -162 -18q-2 -37 -6 -365l111 19q76 10 112 10q55 0 55 -63 q0 -94 -100 -132q-31 -12 -178 -30v-135q0 -43 -4 -68q-8 -41 -39 -72q-29 -29 -74 -28q-40 0 -49 55q-4 33 -4 225l-406 -49l-4 -91l-3 -64.5t-1 -24.5q-23 -115 -108 -115q-59 0 -60 80l6 191q-2 0 -13 -3.5t-39.5 -8.5t-55.5 -11q-70 -16 -109 -16q-51 0 -51 59 q0 102 94 141q33 10 183 35q6 169 12 356l-156 -28q-82 -16 -155 -17q-58 0 -58 66zM629 631l393 47q6 340 6 362l-389 -55q0 -27 -4 -145.5t-6 -208.5z" />
<glyph unicode="$" horiz-adv-x="1409" d="M135 915q0 141 135 254q117 95 271 129l67 289q18 78 99 78q59 0 59 -55q0 -63 -21 -146q-6 -23 -17 -69.5l-17 -71.5q74 6 143 2q8 57 51 238q34 111 105 110q27 0 45 -22t18 -49q0 -66 -18 -152l-33 -147q313 -68 313 -248q0 -84 -82 -170q-78 -78 -161 -109 q-18 -6 -29 -6q-59 0 -59 66q0 57 63 102q94 68 104 78q-49 61 -190 92q-57 -279 -90 -418q268 -104 268 -291q0 -162 -137 -254q-115 -76 -291 -82q-31 -131 -63 -229q-37 -82 -99 -82q-72 0 -71 76q0 43 24 123q14 41 39 123q-74 14 -129 32l-41 -174q-25 -98 -55 -168 q-37 -78 -92 -77q-63 0 -64 69q0 72 41 217l66 217q-14 16 -15 41q0 59 47 101l70 293q-254 97 -254 290zM305 967q0 -82 133 -133l60 276q-74 -16 -121 -47q-72 -43 -72 -96zM481 313q53 -20 133 -34l66 258q-31 12 -135 38zM594 782l135 -39l86 390q-57 4 -75.5 4 t-67.5 -4zM788 270q141 12 191 62v6q0 84 -137 145z" />
<glyph unicode="%" horiz-adv-x="1679" d="M213 915q0 151 98 295q106 158 248 158q129 0 223.5 -106.5t94.5 -235.5q0 -162 -95 -268q-98 -117 -256 -117q-125 0 -219 72q-94 79 -94 202zM371 10q0 20 20 60q111 213 338 581q205 334 338 580q18 35 36.5 67.5l28 49t11.5 18.5q57 90 104 90q33 0 49 -22 q20 -27 21 -56q0 -100 -309 -612l-400 -649q-41 -72 -76 -127q-43 -57 -86 -58q-33 0 -53 25q-22 26 -22 53zM385 991q0 -66 55 -108q51 -39 119 -39q53 0 98 28q43 28 43 80q0 74 -65 140q-63 57 -137 79q-113 -69 -113 -180zM801 299q0 80 33 160q33 90 86 137 q41 35 65 35q12 0 16 -2q29 109 173 108q133 0 217 -98q78 -90 77 -225q0 -170 -114.5 -297t-282.5 -127q-125 0 -201 94q-69 88 -69 215zM973 356q0 -66 49 -114q51 -51 113 -52q66 0 112 56q47 57 47 121q0 76 -53 122q-47 39 -131 39q-14 0 -29 -2q-20 -2 -32 0 q-6 -25 -45 -77q-31 -41 -31 -93z" />
<glyph unicode="&#x26;" horiz-adv-x="1564" d="M190 303q0 141 103 254q90 100 233 152q-313 143 -313 346q0 70 45 135q117 172 410 172q254 0 538 -92q35 102 103 102q31 0 53 -22.5t22 -51.5q0 -39 -61 -180q-63 -147 -86 -176q-49 -63 -96 -63q-72 0 -72 77q0 43 53 131q-266 80 -528 80q-209 0 -209 -88t297 -192 l387 -125q57 -29 57 -74q0 -47 -32 -88q-34 -43 -80 -43q-8 0 -82 8q-55 6 -84 6q-129 0 -281 -51q-195 -63 -194 -160q0 -29 26 -57q88 -102 420 -102q115 0 238 14q68 252 166 252q27 0 49 -23q20 -20 20 -53q0 -23 -20 -69l-78 -203q-31 -72 -86 -94q-61 -25 -223 -25 h-49q-268 0 -404 39q-242 69 -242 264z" />
<glyph unicode="'" horiz-adv-x="622" d="M215 1221q0 53 33 94q35 45 84 45q70 0 69 -143q0 -57 -2 -103v-100q0 -43 -4 -72q-6 -41 -41 -76q-33 -33 -80 -32q-45 0 -53 59q-4 29 -4 186v72q0 16 -1 40t-1 30z" />
<glyph unicode="(" horiz-adv-x="743" d="M109 621q0 187 67 380q78 217 203 328q39 37 72 37q31 0 53 -29q20 -27 20 -59q0 -35 -35 -82q-98 -133 -139 -225q-49 -115 -49 -260q0 -166 55 -289q20 -43 152 -250q18 -27 18 -55q0 -47 -32 -86q-35 -41 -78 -41q-25 0 -54 20q-123 86 -192 275q-61 166 -61 336z" />
<glyph unicode=")" horiz-adv-x="737" d="M207 1249q0 45 34.5 86t80.5 41q25 0 53 -20q119 -82 190 -275q61 -166 62 -333q0 -188 -70 -381q-74 -201 -203 -328q-39 -39 -69 -39q-33 0 -53.5 26.5t-20.5 61.5q0 37 35 84q104 139 139 223q47 113 47 260q0 170 -53 289q-20 49 -150 250q-22 35 -22 55z" />
<glyph unicode="*" horiz-adv-x="1103" d="M102 457q0 33 33 71q59 72 158 152l170 133v12q-86 45 -248 160q-35 31 -35 64q0 41 31 81.5t72 40.5q25 0 192 -108q2 27 2 149q0 197 109 197q68 0 67 -84q0 -135 -14 -367l154 132q117 96 155 96q66 0 66 -72q0 -57 -96 -141l-146 -113l133 -102q90 -78 90 -127 q0 -41 -30 -78q-33 -39 -72 -39q-16 0 -45 23q-51 47 -223 180q-2 -18 -2 -142q0 -279 -125 -278q-53 0 -54 92q0 -2 0 4t1 23.5t2.5 40t2.5 59.5t3 76l-142 -129q-109 -96 -141.5 -96t-50.5 30q-17 23 -17 60z" />
<glyph unicode="+" horiz-adv-x="919" d="M68 690q0 47 32 92q35 47 76 47q12 0 90 -4q39 -2 86 -2v21q0 43 -2 78q-4 70 -4 79q0 47 39 89q41 43 84 43q68 0 68 -172q0 -2 -1 -18.5t-2.5 -49.5t-1.5 -70q59 0 123 2q102 4 125 4q102 0 103 -67q0 -102 -97 -127q-55 -14 -227 -14q-41 0 -47 -68q-6 -72 -14 -98 q-29 -102 -109 -103q-55 0 -55 72q0 15 12 197q-68 -2 -225 10q-53 12 -53 59z" />
<glyph unicode="," horiz-adv-x="520" d="M143 -86q0 121 60 264q41 96 112 96q74 0 74 -84q0 -41 -27 -129q-33 -109 -47 -135q-43 -88 -104 -88q-68 0 -68 76z" />
<glyph unicode="-" horiz-adv-x="1144" d="M221 690q0 100 103 131q49 14 182 15h348q90 0 90 -64q0 -109 -98 -133q-23 -4 -174 -10l-371 -19q-80 0 -80 80z" />
<glyph unicode="." horiz-adv-x="567" d="M180 135q0 55 33 96q33 43 84 43q74 0 74 -86q0 -188 -117 -188q-74 0 -74 135z" />
<glyph unicode="/" horiz-adv-x="1042" d="M139 -252q0 43 180 531l222 589q43 111 131 381q18 84 63 219q35 80 101 80q70 0 69 -78q0 -10 -4 -30q-66 -307 -237 -764l-281 -750q-6 -25 -57 -162q-43 -86 -113 -86q-74 0 -74 70z" />
<glyph unicode="0" horiz-adv-x="1415" d="M168 510q0 197 78 377t223 319q-4 16 -4 25q0 141 184 141q266 0 443 -219q160 -203 159 -479q0 -285 -184 -475q-182 -188 -469 -189q-213 0 -328 148q-102 129 -102 352zM344 567.5q0 -153.5 78 -243.5q80 -98 233 -99q184 0 299 115q113 113 113 299q0 199 -127 344 q-131 150 -324 170q-8 -27 -49 -78q-113 -131 -164 -229q-59 -125 -59 -278.5z" />
<glyph unicode="1" horiz-adv-x="718" d="M80 1200q0 90 88 133q63 29 289 29q84 0 84 -131q0 -180 -39 -533q-23 -203 -33 -401q0 -51 -20 -191q-34 -117 -123 -116q-55 0 -56 123q0 174 41 524q41 356 43 524h-18q-119 0 -189 -14q-25 -4 -43 -4q-24 0 -24 57z" />
<glyph unicode="2" horiz-adv-x="1441" d="M127 905q0 205 266 348q223 119 453 119q164 0 264 -84q104 -92 104 -254q0 -307 -335 -528l-203 -121q-166 -101 -166 -117q0 -53 215 -53q57 0 170 12q133 14 168 15q174 0 174 -90q0 -41 -35 -86q-33 -41 -76 -41q-20 0 -34.5 2t-34.5 2q-76 0 -203 -14.5t-205 -14.5 q-324 0 -323 215q0 156 186 281l344 204q186 129 186 291q0 180 -233 180q-129 0 -279 -55q-168 -61 -233 -149q-6 -8 -6 -23q0 -29 51 -65q53 -37 53 -78q0 -43 -28 -80q-31 -39 -70 -39q-14 0 -31 8q-139 86 -139 215z" />
<glyph unicode="3" horiz-adv-x="1476" d="M166 1151q0 63 70 109q82 53 294 83q188 29 318 29q418 0 418 -285q0 -207 -324 -358q139 -47 229 -131q111 -102 111 -231q0 -205 -219 -304q-162 -74 -401 -73q-248 0 -340 35q-57 23 -58 63q0 49 35 90q33 39 86 39q74 0 164 -10q106 -12 164 -12q98 0 217 22 q154 31 178 94q-16 143 -211 213q-141 51 -322 51q-29 0 -83 -6q-37 -4 -86 -4q-59 0 -60 60q0 96 94 141q25 14 131 39q147 33 295 90q221 86 221 164q0 63 -106 96q-84 27 -158 27q-280 0 -565 -99q-23 -8 -33 -8q-59 0 -59 76z" />
<glyph unicode="4" horiz-adv-x="1269" d="M80 651q0 106 47 234l86 223l45 162q29 102 102 102q59 0 60 -78q0 -104 -80 -295q-82 -195 -82 -294q0 -139 240 -140q80 0 368 45v215q0 268 111 269q31 0 39 -45q12 -51 12 -203q0 -63 -2 -111v-106q29 2 82 2q76 0 76 -60q0 -43 -27 -82q-25 -37 -67 -49 q-14 -4 -68 -8v-129q2 -57 2 -129q0 -207 -111 -207q-47 0 -47 53q0 111 -2 197v197q-295 -49 -418 -49q-158 0 -251 63q-115 73 -115 223z" />
<glyph unicode="5" horiz-adv-x="1474" d="M174 231q0 43 31 82t71 39q6 0 113 -67q127 -80 270 -80q158 0 297 88q156 98 156 250q0 102 -84 162q-70 49 -180 49q-172 0 -373 -107q-160 -86 -180 -86q-76 0 -76 80q0 201 121 526q-14 20 -14 50q0 104 102 135q25 8 176 14q14 0 47 2t92.5 4l118.5 4q178 10 258 10 q102 0 103 -67q0 -106 -101 -137q-35 -10 -166 -11q-76 0 -442 -24l-72 -291q244 125 445 125q184 0 301 -98q123 -104 123 -287q0 -242 -232 -426q-215 -172 -465 -172q-117 0 -233 45q-137 55 -191 139q-16 24 -16 49z" />
<glyph unicode="6" horiz-adv-x="1372" d="M182 467q0 205 94 471q102 285 246 408q37 31 64 30q63 0 63 -78q0 -27 -28 -73l-109 -168q-59 -94 -88 -178q213 109 481 108q238 0 330 -131q59 -84 59 -211q0 -242 -243 -448q-236 -197 -484 -197q-199 0 -297 137q-88 123 -88 330zM354 526q0 -326 252 -325 q188 0 357 145q156 139 155 268q0 89 -86 136q-68 37 -166 36q-264 0 -499 -147q-13 -66 -13 -113z" />
<glyph unicode="7" horiz-adv-x="1265" d="M104 1249q0 41 31 82q29 37 76 37q72 0 123 -2q25 0 53.5 -1t43.5 -2t24 -1h202q414 0 488 -33l6 -2q47 -20 47 -67q0 -66 -162 -340l-215 -355q-117 -199 -166 -323q-25 -72 -59 -150q-43 -82 -102 -82q-68 0 -68 68q0 23 6 41q78 250 232 530q94 178 299 498 q-262 31 -623 31q-127 0 -186 18q-50 16 -50 53z" />
<glyph unicode="8" horiz-adv-x="1423" d="M182 336q0 197 170 332q-145 72 -145 221q0 164 166 297v4q0 76 71 119q98 59 306 59q180 0 307 -94q141 -104 141 -279q0 -172 -141 -286q184 -123 184 -303q0 -197 -199 -324q-147 -92 -376 -92q-190 0 -324 76q-160 92 -160 270zM358 387q0 -100 138 -162 q111 -47 227 -47q104 0 211 41q133 53 133 146q0 78 -113 157q-106 74 -188 74q-141 0 -252 -41q-156 -55 -156 -168zM369 936q0 -139 385 -139q88 0 168 37q100 45 100 122q0 102 -121 164q-96 51 -213 51q-25 0 -65 -4q-25 -33 -97 -67q-84 -41 -106 -62q-51 -39 -51 -102 z" />
<glyph unicode="9" horiz-adv-x="1466" d="M182 694q0 274 232 488q221 207 499 207q101 0 197 -43q100 -45 150 -129q14 -25 14 -46q0 -41 -31 -81.5t-69 -40.5q2 0 -1.5 2t-12.5 8t-20.5 12t-30.5 18.5l-38 24.5q-109 68 -194 68q-182 0 -334 -115q-166 -123 -166 -297q0 -106 55 -180q61 -80 166 -80 q119 0 242 86q43 31 184 160q94 88 139 88q72 0 72 -78q0 -94 -61 -352q-61 -270 -103 -336q-53 -84 -119 -84q-59 0 -59 59q0 74 41 213l63 213q-221 -197 -417 -196q-176 0 -287 116.5t-111 294.5z" />
<glyph unicode=":" horiz-adv-x="567" d="M170 82q0 53 39 119q39 70 94 69q72 0 72 -88q0 -61 -35 -119q-39 -63 -98 -63q-33 0 -52 25q-20 26 -20 57zM174 522q0 57 39 114.5t90 57.5q72 0 72 -80q0 -57 -39 -110q-41 -55 -94 -55q-68 -1 -68 73z" />
<glyph unicode=";" horiz-adv-x="497" d="M109 -82q0 2 8 39q28 120 49 166q45 106 117 106q70 0 69 -73q-6 -27 -22 -80q-33 -117 -47 -146q-43 -90 -107 -90q-67 0 -67 78zM188 575q0 53 33 95q33 43 82 43q39 0 64 -54q20 -41 20 -88q0 -43 -33 -86q-31 -41 -75 -41q-43 0 -68 45q-23 41 -23 86z" />
<glyph unicode="&#x3c;" horiz-adv-x="892" d="M59 645q0 59 60 113q184 164 512 276q4 1 9 3q4 1 5 1q27 0 45 -28q18 -27 19 -58q0 -63 -78 -116q-53 -35 -146 -82q-104 -53 -149 -80q82 -49 260 -189q35 -35 35 -69q0 -46 -31 -92q-35 -49 -78 -50q-51 0 -217 123q-145 104 -207 170q-39 39 -39 78z" />
<glyph unicode="=" horiz-adv-x="1298" d="M207 457q0 113 104 139q70 20 264 20q109 0 197 -2h199q61 0 90 -6q51 -12 51 -65q0 -113 -98 -137q-27 -6 -205 -7q-84 0 -260 -12q-145 -10 -262 -10q-80 0 -80 80zM266 872q0 57 39 99q41 45 90 45q55 0 146 -6q121 -10 145 -13q119 0 178 -2q100 -2 174 -26 q55 -18 56 -64q0 -49 -37 -92t-86 -43q-74 0 -223.5 6t-225.5 6q-125 0 -196 23q-60 18 -60 67z" />
<glyph unicode="&#x3e;" horiz-adv-x="999" d="M197 905q0 47 34 94q37 49 80 50q82 0 240 -95q147 -86 209 -153q35 -37 35 -80q0 -47 -35 -90q-49 -61 -201 -193q-168 -143 -211 -143q-66 0 -65 86q0 51 53 104l213 183q-74 55 -207 123l-109 57q-36 20 -36 57z" />
<glyph unicode="?" horiz-adv-x="1234" d="M197 561q0 152 200 246q47 23 328 98q229 59 291 121q6 6 6 16q0 152 -367 152q-172 0 -331 -74q-33 -16 -50 -16q-29 0 -49 26q-18 25 -18 56q0 53 51 96q63 53 240 88q150 29 256 29q178 0 295 -56q156 -74 155 -229q0 -182 -153 -287q-102 -68 -334 -129 q-260 -70 -330 -106q20 -29 21 -64q0 -45 -27 -84q-31 -45 -72 -45q-45 0 -80 60q-32 53 -32 102zM246 63q0 55 39 113q43 68 96 68q59 0 59 -72q0 -20 -28 -74q-35 -63 -39 -67q-29 -37 -68 -37q-59 -1 -59 69z" />
<glyph unicode="@" horiz-adv-x="1781" d="M168 432q0 223 111 471q111 254 296 420q207 184 433 184q262 0 467 -247q193 -236 192 -506q0 -203 -115 -353q-123 -160 -323 -159q-217 0 -268 139q-109 -86 -193 -86q-92 0 -141 88q-43 74 -43 172q0 178 92 342q106 190 274 190q59 0 150 -45q94 -51 94 -106 q0 -43 -31 -82q-31 -41 -67 -41q-12 0 -72 41q-63 43 -100 43q-76 0 -123 -111q-35 -88 -35 -176q0 -100 43 -100q53 0 131 84t123 84q35 0 53.5 -24.5t18.5 -57.5q0 -4 -4.5 -32.5t-4.5 -31.5q0 -88 140 -88q217 0 217 254q0 224 -148 406q-154 190 -374 190 q-252 0 -439 -282q-168 -258 -168 -518q0 -416 469 -416q78 0 78 -72q0 -135 -201 -135q-256 0 -397 156q-135 147 -135 405z" />
<glyph unicode="A" horiz-adv-x="1064" d="M27 53q0 43 163 473l203 525l58 153q33 82 75 146q41 59 88.5 59t73.5 -63q37 -84 68 -230l51 -233q82 -244 215 -727q4 -20 4 -27q0 -46 -37 -92q-37 -47 -80 -47q-51 0 -104 176q-39 -6 -107 -6h-86q-20 0 -48.5 1t-35.5 1h-292q-66 -182 -140 -182q-69 -1 -69 73z M293 313h459q-95 289 -191 707q-4 -12 -9 -25.5t-13.5 -33t-26.5 -68.5l-43 -114.5l-72 -189.5z" />
<glyph unicode="B" horiz-adv-x="1232" d="M66 1157q0 66 71 113q76 51 291 84q188 29 313 28q438 0 439 -280q0 -217 -371 -412q131 -37 213 -110q100 -92 100 -209q0 -98 -67 -185q-63 -76 -158 -123q-152 -74 -403 -73q-248 0 -318 43q-72 0 -72 73v328q0 369 46 653q-16 -4 -25 -4q-59 0 -59 74zM276 205 q246 -10 265 -10q270 0 370 79q33 25 33 39q0 101 -153 160q-115 45 -242 45q-115 0 -262 -29q-11 -272 -11 -284zM295 690q193 53 403 146q305 131 306 229q0 70 -107 102q-78 23 -166 23q-197 0 -420 -53q-2 -37 -7 -185.5z" />
<glyph unicode="C" horiz-adv-x="1120" d="M43 551q0 256 205 539q217 299 467 299q244 0 317 -355v-4q0 -49 -31 -88q-35 -43 -77 -43q-31 0 -64 76q-51 111 -69 135q-53 76 -132 76q-151 0 -301 -228q-141 -209 -141 -366q0 -170 125 -289q127 -121 297 -121q104 0 186 58q41 29 107 106q49 57 78 57q61 0 61 -67 q0 -31 -12 -53q-66 -131 -195 -211q-133 -82 -274 -82q-225 0 -385 166q-162 168 -162 395z" />
<glyph unicode="D" horiz-adv-x="1325" d="M55 1212q0 94 101 125q57 18 176 19h47q330 0 584 -115q330 -147 329 -436q0 -276 -366 -522q-246 -166 -615 -293q-22 -6 -30 -6q-61 0 -62 122q0 100 17 324q18 227 18 324v262q0 92 22 141l-159 -6h2q-64 0 -64 61zM393 201q252 98 441 217q293 188 292 344 q0 193 -272 301q-195 76 -438 90l4 -412q0 -333 -27 -540z" />
<glyph unicode="E" horiz-adv-x="1071" d="M63 444q0 131 46 351q45 231 51 348q-35 12 -35 57q0 100 88 125q31 35 70 35q16 0 30 -14q289 43 619 43q63 0 63 -60q0 -78 -84 -108q-29 -10 -186 -21q-115 -8 -391 -39q-8 -76 -64 -360q162 29 414 28q92 0 92 -75q0 -86 -92 -113q-35 -8 -129 -14q-98 -6 -311 -25 q-2 -27 -2 -76q0 -326 215 -325q82 0 237.5 53t237.5 53q94 0 94 -63q0 -115 -139 -154l-234 -45l-114 -35q-63 -20 -119 -20q-357 -1 -357 454z" />
<glyph unicode="F" horiz-adv-x="1110" d="M49 1190q0 88 96 129q68 29 304 53q342 37 581 37q72 0 72 -76q0 -96 -101 -131q-35 -10 -215 -16q-84 -4 -454 -39q10 -147 24 -420q197 39 373 39q82 0 82 -84q0 -88 -70 -115q-39 -16 -141 -22q-125 -6 -235 -19v-147v-148q0 -246 -117 -245q-59 0 -60 77q0 10 1 52.5 t1 72.5v125q0 252 -28 815q-33 -4 -49 -4q-64 0 -64 66z" />
<glyph unicode="G" horiz-adv-x="1329" d="M49 565q0 207 105 398q100 184 272 311t354 127q92 0 183 -47q92 -47 135 -127q12 -20 12 -45q0 -43 -29 -84q-31 -47 -71 -47q-6 0 -95 75q-86 74 -178 74q-197 0 -352 -190q-152 -186 -152 -381q0 -178 115 -299q111 -117 293 -117q158 0 317 104q-281 141 -280 226 q0 43 24 82q29 47 70 47q10 0 37 -17l131 -88q84 -53 137 -78q57 -18 183 -79q35 -25 34 -58q0 -39 -28 -84q-29 -43 -70 -43q-25 0 -55 19q-100 -121 -240 -187q-141 -68 -293 -67q-238 0 -399 168q-160 165 -160 407z" />
<glyph unicode="H" horiz-adv-x="1185" d="M72 86q0 151 12 393l16 393v181q0 281 127 280q53 0 54 -98q0 -213 -33 -680q23 20 51 20q119 0 309 -20q223 -25 283 -66q23 223 47 533q2 43 2 127q2 72 16 125q27 98 105 98q55 0 55 -78q0 -141 -47 -663l-29 -375q-4 -86 -18 -168q-27 -98 -104 -98q-53 0 -54 73 q0 4 2 36t7.5 104.5l11.5 148.5q-27 -39 -90 -39q-45 0 -123 17q-80 16 -123 22q-2 0 -268 19q-20 2 -43 10q0 -4 -1 -56.5t-1 -99.5q0 -219 -115 -219q-49 0 -49 80z" />
<glyph unicode="I" horiz-adv-x="784" d="M66 43q0 84 65 121q43 23 141 35q12 154 19 479q6 358 18 479q-25 0 -49 -2q-10 0 -25.5 -1t-21.5 -1q-131 0 -131 88q0 45 28.5 86t73.5 41q8 0 47 1t66 1t65.5 1t47.5 1h153q68 0 109 -10q53 -16 53 -62q0 -106 -98 -137q-25 -8 -78 -8q-29 0 -72 2q0 -639 -33 -940 q115 8 187 8q80 0 80 -84q0 -109 -107 -135q-6 -2 -129 -12q-305 -23 -340 -23q-69 0 -69 72z" />
<glyph unicode="J" horiz-adv-x="1269" d="M14 399q0 133 113 242q96 90 238 141q25 8 32 9q57 0 58 -66q0 -72 -66 -121l-119 -65q-66 -37 -65 -82q0 -106 166 -187q145 -70 260 -69q207 0 309 145q88 125 88 342q0 164 -86 539q-4 20 -4 22q0 45 37 90q37 47 80 47q29 0 47 -40q41 -88 76 -295q29 -188 28 -308 q0 -304 -153 -516q-172 -238 -463 -237q-207 0 -377 100q-199 119 -199 309z" />
<glyph unicode="K" horiz-adv-x="1150" d="M74 63q0 195 12 392q16 287 18 389v264q0 268 127 268q53 0 54 -108q0 -252 -6 -443q84 72 229 172q203 143 231 166q88 84 207 183q41 31 66 30q31 0 49 -24.5t18 -53.5q0 -33 -32 -73q-90 -123 -306 -269q-279 -188 -340 -239q199 -115 545 -426q139 -123 139 -172 q0 -41 -32.5 -80t-75.5 -39q-20 0 -49 20q-8 6 -162 150q-238 225 -500 377l-20 -316q-9 -147 -13 -153q-20 -94 -100 -94q-59 -1 -59 79z" />
<glyph unicode="L" horiz-adv-x="1067" d="M66 453q0 133 49 397t49 399q0 47 29 92q27 41 77 41q66 0 66 -108q0 -184 -45 -455q-39 -227 -39 -313q0 -117 43 -201q53 -104 158 -104q88 0 266 53t266 53q78 0 78 -76q0 -92 -102 -133q-14 -6 -146 -30l-20 -6l-73.5 -19l-109.5 -29q-121 -31 -206 -30 q-174 0 -267 153q-73 126 -73 316z" />
<glyph unicode="M" horiz-adv-x="1597" d="M59 55q0 4 4 33q59 305 146 799q20 147 29 221q23 141 57 211q45 92 113 92q35 0 61 -43q33 -49 100 -235q163 -449 228 -713q92 242 196 586q20 70 43 139q25 80 56 135q49 88 108 88q45 0 66 -61q4 -16 24 -113q31 -166 86 -379l105 -371q8 -29 14 -54l11 -45.5 t16 -55.5q23 -94 22 -158q0 -47 -34.5 -94t-84.5 -47q-31 0 -53 47q-27 53 -49 139l-29 146q-70 262 -149 604l-201 -594q-31 -84 -47 -121q-29 -70 -61 -115q-39 -57 -88 -57q-66 0 -170 385q-88 324 -177 563q-68 -344 -112 -631l-23 -149q-14 -84 -41 -148 q-33 -80 -96 -79q-70 -1 -70 75z" />
<glyph unicode="N" horiz-adv-x="1146" d="M70 45q0 139 24 391q27 285 29 389v205q0 336 127 336q25 0 55 -43q35 -51 90 -152q76 -139 84 -151l391 -617q0 51 4.5 262.5t6.5 368.5q0 100 4 121q2 70 18 119q33 104 113 104q55 0 55 -80q0 -182 -8 -446t-8 -449q0 -154 -23 -237q-14 -53 -47 -98q-39 -57 -82 -58 q-23 0 -47 29q-40 46 -190 283l-377 614q-6 -119 -35 -633q0 -20 -4 -59t-4 -60q-6 -71 -25 -116q-35 -96 -104 -97q-47 0 -47 74z" />
<glyph unicode="O" horiz-adv-x="1363" d="M55 592q0 197 86 369q88 180 252 280q53 125 314 125q270 0 442 -209q158 -195 158 -473q0 -287 -162 -479q-170 -207 -453 -207q-272 0 -450 160q-187 166 -187 434zM229 664q0 -206 148 -338q139 -125 352 -125q182 0 286.5 118.5t104.5 305.5q0 236 -143 379 q-139 139 -379 139q-47 0 -141 -58q-228 -138 -228 -421z" />
<glyph unicode="P" horiz-adv-x="1245" d="M63 1260q0 49 33 81q35 35 76 35q86 0 244 -14q350 -27 522 -96q289 -117 289 -383q0 -248 -322 -410q-231 -115 -540 -151q-2 -147 -13 -201q-25 -123 -116 -123q-59 0 -60 88q0 94 6 266l11 266v244q0 59 30 107q33 51 94 51q57 0 58 -125q0 -188 -4 -373 q229 41 391 99q274 98 274 227q0 135 -182 219q-127 57 -301 76q-82 4 -229 16q-157 12 -209 37t-52 64z" />
<glyph unicode="Q" horiz-adv-x="1355" d="M43 514q0 233 123 442q123 215 323 322q20 61 91 80q33 10 129 10q262 0 424 -182q158 -176 157 -443q0 -305 -198 -534q170 -158 170 -211q0 -41 -31 -78t-70 -37q-49 0 -217 199q-150 -92 -323 -92q-246 0 -406 139q-172 147 -172 385zM213 586q0 -180 129 -287 q119 -100 307 -100q95 0 178 30q-102 145 -102 195q0 33 24.5 63.5t57.5 30.5q43 0 174 -182q129 147 129 354q0 225 -152 352q-139 115 -368 115l-37 -24q-340 -209 -340 -547z" />
<glyph unicode="R" d="M68 1231q0 51 34 88q37 41 82 41q303 0 602 -78q221 -55 330 -131q162 -113 162 -301q0 -256 -365 -401q100 -141 191 -218q45 -37 65 -55q37 -37 37 -74q0 -45 -32 -86q-35 -45 -72 -45q-16 0 -37 15q-207 139 -352 399q-199 -53 -434 -78q-2 -131 -13 -180 q-25 -125 -96 -125q-43 0 -43 66q0 20 4 171.5t4 174.5q0 78 -2 141v141q0 250 23 471q-88 1 -88 64zM291 502q256 31 465 92q348 98 348 229q0 158 -334 250q-190 52 -467 80q-4 -53 -12 -651z" />
<glyph unicode="S" horiz-adv-x="1251" d="M53 932q0 219 240 336q188 94 432 94q393 0 393 -209q0 -57 -43 -137q-51 -88 -104 -88q-33 0 -53 30q-18 25 -19 62q0 41 27 78q-77 49 -258 49q-276 0 -408 -121q-23 -20 -22 -41q0 -137 247 -211l459 -127q250 -102 250 -301q0 -184 -160 -276q-127 -76 -327 -76 q-109 0 -267 24q-178 27 -250 70q-55 35 -55 82q0 51 35 90q35 37 88 37q33 0 156 -31q193 -49 372 -49q72 0 129 14q90 18 91 60q0 106 -248 178q-420 119 -459 137q-246 114 -246 326z" />
<glyph unicode="T" horiz-adv-x="1525" d="M53 1161q0 49 35 94q35 43 84 43q12 0 20.5 -2t20.5 -2q182 0 579.5 57.5t583.5 57.5q98 0 99 -70q0 -98 -99 -133q-35 -12 -112 -16l-119 -4q-104 -6 -242 -27q-219 -33 -241 -35q0 -106 -11 -358l-12 -356v-203q0 -207 -100 -207q-29 0 -41 45q-25 84 -25 236 q0 164 12 415q18 399 19 414q-135 -12 -328 -12q-123 0 -123 63z" />
<glyph unicode="U" horiz-adv-x="1368" d="M59 614q0 123 47 336q51 223 103 324q41 74 86 74q63 0 63 -66q0 -12 -4 -33q0 -2 -75 -280q-47 -170 -48 -285q0 -231 168 -358q150 -111 392 -111q193 0 266 162q51 111 51 332q0 102 -33 284.5t-33 284.5q0 43 39 88t82 45q66 0 107 -274q31 -203 30 -342 q0 -341 -116 -541q-145 -252 -461 -252q-291 0 -473 158q-191 168 -191 454z" />
<glyph unicode="V" horiz-adv-x="1220" d="M41 1253q0 47 33 88q35 45 76 45q27 0 57 -47q49 -80 127 -284q131 -352 235 -738q150 299 322 695l70 168q37 82 83 157q39 63 78 64q29 0 52 -25q20 -23 20 -57q0 -27 -12 -55q-18 -49 -111 -246l-233 -512l-101 -248q-59 -141 -129 -225q-55 -66 -104 -66 q-33 0 -53 43q-12 20 -48 160q-27 115 -84 274l-159 418q-119 313 -119 391z" />
<glyph unicode="W" horiz-adv-x="1708" d="M55 1260q0 41 41 86q39 43 82 43q29 0 53 -43q33 -61 54 -146l18 -69.5t19 -81.5q43 -152 161 -633l230 618l47 127q27 68 61 119q39 59 78 59q55 0 98 -118q16 -41 88 -283q96 -317 205 -586q49 229 121 658q16 102 27 153q23 106 43 154q37 84 96 84q70 0 70 -78 q0 -18 -2 -31q-39 -188 -156 -813q-14 -86 -33 -225q-25 -139 -63 -215q-46 -92 -111 -92q-27 0 -57 43q-43 58 -117 246q-160 403 -248 743q-115 -285 -219 -612q-29 -98 -45 -146q-27 -82 -59 -139q-51 -88 -113 -88q-43 0 -64 61q-12 35 -28 117l-68 268 q-74 309 -205 805q-1 4 -2 10q-2 4 -2 5z" />
<glyph unicode="X" horiz-adv-x="1177" d="M55 74q0 100 398 631q-367 518 -367 569q0 41 30.5 88t71.5 47q16 0 43 -31q14 -14 115 -168l240 -331l186 239q111 133 207 228q41 37 61 36q29 0 47 -24q16 -23 17 -55q0 -35 -27 -76q-16 -23 -129 -156q-90 -104 -266 -330q426 -604 426 -682q0 -37 -33 -79 q-31 -39 -69 -39q-18 0 -41 22q-20 20 -131 199q-39 63 -283 409q-92 -125 -240 -346q-25 -47 -102 -172q-41 -55 -82 -55q-29 0 -51 22q-21 21 -21 54z" />
<glyph unicode="Y" horiz-adv-x="1308" d="M57 1044q0 332 140 332q29 0 51 -24q23 -27 22 -58q0 -25 -10 -96.5t-10 -95.5q0 -164 88 -264.5t250 -100.5q141 0 260 74q127 76 166 209q-10 147 -10 225q0 57 30 103q33 51 88 51q96 0 97 -228q0 -63 10 -237q8 -139 8 -240q0 -307 -117 -485q-137 -209 -434 -209 q-96 0 -229 27q-154 27 -215 69q-39 25 -39 60q0 47 33 92q35 47 75 47q2 0 19 -4q281 -78 399 -78q123 0 188.5 43t96.5 158q23 86 22 311q-201 -211 -491 -211q-233 0 -363 152q-125 142 -125 378z" />
<glyph unicode="Z" horiz-adv-x="1380" d="M72 1243q0 53 34.5 94t86.5 41q10 0 190 -10q33 -2 159 -6t222 -8l184 -7.5t130 -5.5t48 -2q98 0 99 -65q0 -41 -31 -100q-61 -113 -264 -353l-547 -620q117 2 442 35q297 29 447 28q59 0 59 -65q0 -92 -94 -131q-49 -20 -272 -35q-590 -39 -785 -39q-86 0 -86 74 q0 43 31 94q47 80 125 164l143 149l572 670q-518 27 -695 26q-94 0 -143 13q-55 16 -55 59z" />
<glyph unicode="[" horiz-adv-x="1015" d="M174 1249q0 49 31 88q31 41 76 41q53 0 210.5 10.5t210.5 10.5q80 0 80 -74q0 -111 -125 -141q-45 -14 -215 -21l25 -368q14 -207 14 -369q0 -74 -8 -213h6q59 0 108.5 2t110.5 2q125 0 125 -76q0 -49 -26.5 -90t-73.5 -53q-37 -8 -182 -8q-47 0 -84 -2t-84 -2 q-119 0 -119 92q0 49 27 88q6 104 6 186q0 111 -17 406q-12 266 -12 405q-43 -2 -63.5 20.5t-20.5 65.5z" />
<glyph unicode="\" horiz-adv-x="808" d="M33 1440q0 43 34.5 90t77.5 47q35 0 70 -86q2 -4 39 -123q45 -133 274 -770q174 -479 238 -780q4 -20 4 -35q0 -47 -30.5 -84t-75.5 -37q-37 0 -58 39q-23 43 -41 109l-13 54t-15 58q-23 80 -127 389l-209 592q-168 490 -168 537z" />
<glyph unicode="]" horiz-adv-x="1013" d="M188 1239q0 51 27 92t76 51q25 4 129 4h112q51 2 115 3q113 0 113 -86q0 -43 -31 -91q-2 -37 -2 -149q0 -154 14 -424q12 -276 13 -424q41 2 61.5 -20.5t20.5 -65.5q0 -49 -27 -88q-31 -43 -80 -43q-23 0 -211 -8q-141 -6 -211 -6q-78 0 -78 69q0 113 125 144 q39 12 213 18q-6 94 -11 188.5t-11 186.5q-14 258 -15 373q0 61 9 200q-49 0 -93 -2h-90q-72 0 -112 10q-56 13 -56 68z" />
<glyph unicode="^" horiz-adv-x="1026" d="M109 399q0 35 137 428q131 377 168 439q59 102 118.5 102t135.5 -192q20 -49 86 -250l82 -230q61 -176 61 -213q0 -46 -37 -98q-37 -53 -80 -53q-74 0 -172 303l-110 385q-84 -215 -148 -412q-16 -59 -67 -194q-43 -82 -107 -82q-67 -1 -67 67z" />
<glyph unicode="_" horiz-adv-x="1357" d="M252 0v137h852v-137h-852z" />
<glyph unicode="`" horiz-adv-x="575" d="M92 1890q0 49 37 92t84 43q37 0 63 -43l99 -184q27 -41 88 -143q14 -29 14 -49q0 -46 -31 -93q-31 -45 -73 -45q-25 0 -54 25q-35 29 -133 195q-94 157 -94 202z" />
<glyph unicode="a" horiz-adv-x="1069" d="M29 53q0 43 164 473l202 525q10 29 26.5 68.5t31.5 84.5q39 92 75 146q41 59 88 59q45 0 72 -63q41 -94 70 -230l51 -233q82 -244 215 -727q2 -10 2 -27q0 -49 -35 -92q-37 -47 -80 -47q-51 0 -104 176q-41 -6 -107 -6h-86q-20 0 -48.5 1t-35.5 1h-292 q-66 -182 -142 -182q-67 -1 -67 73zM295 313h459q-95 289 -191 707q-6 -14 -11 -28.5t-20.5 -55.5l-39 -104.5l-75.5 -201z" />
<glyph unicode="b" horiz-adv-x="1241" d="M70 1157q0 63 73 113q76 51 289 84q188 29 316 28q436 0 436 -280q0 -217 -371 -412q131 -37 213 -110q102 -92 102 -209q0 -98 -67 -185q-63 -76 -158 -123q-151 -74 -405 -73q-244 0 -316 43q-74 0 -73 73v328q0 354 47 653q-16 -4 -27 -4q-59 0 -59 74zM283 205 q246 -10 264 -10q268 0 368 79q33 25 33 39q0 101 -153 160q-115 45 -242 45q-113 0 -260 -29q-10 -272 -10 -284zM299 690q193 53 403 146q307 131 308 229q0 70 -107 102q-78 23 -166 23q-197 0 -420 -53z" />
<glyph unicode="c" horiz-adv-x="1128" d="M47 551q0 256 205 539q217 299 467 299q244 0 317 -355v-4q0 -47 -32 -88q-33 -43 -76 -43q-33 0 -64 76q-51 111 -69 135q-53 76 -133 76q-150 0 -300 -228q-141 -209 -141 -366q0 -170 125 -289q127 -121 295 -121q106 0 188 58q41 29 107 106q49 57 76 57q63 0 63 -67 q0 -25 -12 -53q-66 -129 -197 -211q-133 -82 -274 -82q-225 0 -385 166t-160 395z" />
<glyph unicode="d" horiz-adv-x="1329" d="M59 1212q0 94 101 125q55 18 176 19h47q330 0 584 -115q328 -147 327 -436q0 -276 -366 -522q-246 -166 -615 -293q-23 -6 -30 -6q-59 0 -60 122q0 100 17 324q14 168 18 324v262q0 92 23 141q-161 -6 -161.5 -6t1.5 0q-62 0 -62 61zM395 201q252 98 441 217 q295 187 294 344q0 195 -272 301q-195 76 -438 90l4 -412q0 -317 -29 -540z" />
<glyph unicode="e" horiz-adv-x="1079" d="M68 444q0 126 43 351q45 231 51 348q-35 12 -35 57q0 100 88 125q31 35 72 35q18 0 30 -14q289 43 619 43q61 0 61 -60q0 -78 -82 -108q-27 -10 -188 -21q-115 -8 -391 -39q-6 -68 -62 -360q160 29 414 28q92 0 92 -75q0 -86 -92 -113q-35 -8 -129 -14q-98 -6 -311 -25 q-4 -53 -4 -76q0 -326 215 -325q84 0 239.5 53t237.5 53q94 0 94 -63q0 -114 -141 -154l-232 -45q-18 -6 -57 -17.5l-59 -17.5q-63 -20 -117 -20q-356 -1 -356 454z" />
<glyph unicode="f" horiz-adv-x="1112" d="M53 1190q0 109 156 149q57 14 244 33q342 37 581 37q70 0 70 -76q0 -96 -98 -131q-35 -10 -215 -16q-90 -4 -455 -39q10 -147 24 -420q197 39 373 39q82 0 82 -84q0 -88 -70 -115q-39 -16 -141 -22q-125 -6 -237 -19q0 -80 2 -147v-148q0 -246 -117 -245q-61 0 -62 77 q0 70 2.5 125.5t2.5 124.5q0 252 -29 815q-33 -4 -49 -4q-64 0 -64 66z" />
<glyph unicode="g" horiz-adv-x="1335" d="M53 565q0 207 105 398q100 184 272 311t352 127q94 0 185 -47q88 -45 135 -127q12 -25 12 -45q0 -43 -29 -84q-31 -47 -73 -47q-6 0 -94 75q-86 74 -177 74q-193 0 -352 -190q-152 -186 -151 -381q0 -182 114.5 -299t292.5 -117q158 0 318 104q-281 141 -281 226 q0 43 25 82q29 47 69 47q8 0 35 -17l133 -88q84 -53 135 -78q65 -22 185 -79q35 -23 34 -58q0 -39 -28 -84q-29 -43 -70 -43q-25 0 -57 19q-100 -121 -240 -187q-141 -68 -293 -67q-236 0 -397 168q-160 165 -160 407z" />
<glyph unicode="h" horiz-adv-x="1189" d="M76 86q0 190 10 393q14 297 18 393v181q0 281 125 280q53 0 54 -98q0 -199 -31 -680q23 20 51 20q117 0 307 -20q225 -25 285 -66q14 145 45 533l4 127q4 84 17 125q27 98 102 98q57 0 57 -78q0 -141 -47 -663l-29 -375q-4 -68 -20 -168q-29 -98 -102 -98q-53 0 -54 73 q0 18 19 289q-27 -39 -88 -39q-47 0 -125 17q-72 14 -123 22q-27 0 -64.5 3t-98 8.5t-105.5 7.5q-16 2 -41 10q-2 -23 -2 -156q0 -219 -115 -219q-49 0 -49 80z" />
<glyph unicode="i" horiz-adv-x="348" d="M57 86q0 139 13 383q12 205 16 381v242q0 295 141 294q61 0 62 -133q0 -139 -17 -487q-14 -303 -14 -487q0 -281 -131 -281q-70 0 -70 88z" />
<glyph unicode="j" horiz-adv-x="1271" d="M14 399q0 133 113 242q96 90 238 141q25 8 32 9q57 0 58 -66q0 -72 -66 -121l-119 -65q-66 -37 -65 -82q0 -106 166 -187q145 -70 260 -69q207 0 309 145q88 125 88 342q0 164 -86 539q-4 20 -4 22q0 45 37 90q37 47 80 47q29 0 47 -40q41 -88 76 -295q29 -188 28 -308 q0 -304 -153 -516q-172 -238 -463 -237q-207 0 -377 100q-199 119 -199 309z" />
<glyph unicode="k" horiz-adv-x="1157" d="M78 63q0 145 12 392q16 287 19 389v264q0 268 127 268q53 0 53 -108q0 -252 -6 -443q77 68 227 172q180 125 231 166q76 72 209 183q41 31 66 30q29 0 47 -24.5t18 -53.5q0 -31 -30 -73q-94 -125 -308 -269q-279 -188 -340 -239q197 -113 547 -426q139 -123 140 -172 q0 -39 -35 -80q-33 -39 -74 -39q-23 0 -51 20q-8 6 -162 150q-238 225 -498 377l-20 -316q-9 -147 -12 -153q-20 -94 -101 -94q-59 -1 -59 79z" />
<glyph unicode="l" horiz-adv-x="1069" d="M68 453q0 133 49 397t49 399q0 47 29 92q27 41 75 41q68 0 68 -108q0 -184 -45 -455q-39 -227 -39 -313q0 -121 41 -201q52 -104 160 -104q88 0 266 53t264 53q80 0 80 -76q0 -92 -102 -133q-14 -6 -146 -30l-20 -6l-73.5 -19l-109.5 -29q-119 -31 -206 -30 q-174 0 -267 153q-73 126 -73 316z" />
<glyph unicode="m" horiz-adv-x="1603" d="M61 55q0 4 5 33q59 305 145 799l29 221q23 141 57 211q43 92 113 92q33 0 59 -43q33 -47 102 -235q163 -449 228 -713q92 242 196 586l43 139q25 80 56 135q49 88 108 88q45 0 66 -61q4 -16 24 -113q35 -197 86 -379l103 -371q12 -47 43 -155q23 -94 22 -158 q0 -47 -34.5 -94t-84.5 -47q-31 0 -53 47q-27 53 -49 139q-14 74 -31 146q-47 180 -147 604l-203 -594q-41 -111 -45 -121q-27 -63 -63 -115q-39 -57 -86 -57q-66 0 -170 385q-88 324 -177 563q-68 -344 -112 -631q-16 -92 -23 -149q-14 -84 -41 -148q-35 -80 -96 -79 q-70 -1 -70 75z" />
<glyph unicode="n" horiz-adv-x="1148" d="M72 45q0 139 24 391q27 285 29 389v205q0 336 127 336q25 0 55 -43q35 -51 90 -152l40.5 -73.5t23.5 -42t11 -19.5t9 -16l391 -617q0 51 4.5 262.5t6.5 368.5q4 117 4 121q2 70 18 119q33 104 113 104q55 0 55 -80q0 -182 -8 -446t-8 -449q0 -154 -23 -237 q-14 -53 -47 -98q-39 -57 -82 -58q-23 0 -47 29q-40 46 -190 283l-377 614q-12 -252 -37 -633l-6 -119q-6 -71 -25 -116q-35 -96 -104 -97q-47 0 -47 74z" />
<glyph unicode="o" horiz-adv-x="1368" d="M55 592q0 193 88 369q94 184 250 280q53 125 316 125q273 0 442 -209q158 -190 158 -473q0 -287 -162 -479q-170 -207 -453 -207q-272 0 -452 160q-187 166 -187 434zM231 664q0 -206 148 -338q139 -125 350 -125q184 0 289 118q102 117 102 306q0 238 -141 379 q-139 139 -381 139q-45 0 -139 -58q-228 -138 -228 -421z" />
<glyph unicode="p" horiz-adv-x="1247" d="M66 1260q0 49 32 81q35 35 76 35q86 0 244 -14q348 -27 520 -96q291 -117 291 -383q0 -248 -322 -410q-231 -115 -542 -151q-2 -160 -11 -201q-25 -123 -116 -123q-61 0 -62 88q0 37 8 266l11 266v244q0 59 30 107q33 51 94 51q57 0 58 -125q0 -188 -4 -373 q229 41 391 99q274 98 274 227q0 135 -182 219q-127 57 -301 76q-82 4 -229 16q-157 12 -209 37q-51 25 -51 64z" />
<glyph unicode="q" horiz-adv-x="1359" d="M45 514q0 227 123 442t324 322q20 61 90 80q33 10 129 10q262 0 424 -182q158 -176 157 -443q0 -305 -198 -534q170 -158 170 -211q0 -41 -31 -78t-70 -37q-51 0 -219 199q-150 -92 -323 -92q-244 0 -404 139q-172 147 -172 385zM215 586q0 -180 129 -287 q119 -100 305 -100q96 0 180 30q-102 150 -102 195q0 33 24.5 63.5t57.5 30.5q41 0 172 -182q129 147 129 354q0 227 -149 352q-139 115 -369 115l-37 -24q-340 -205 -340 -547z" />
<glyph unicode="r" horiz-adv-x="1331" d="M68 1231q0 47 36.5 88t81.5 41q303 0 602 -78q221 -55 330 -131q160 -111 160 -301q0 -256 -363 -401q92 -133 191 -218l65 -55q37 -37 37 -74q0 -45 -32 -86q-35 -45 -72 -45q-16 0 -37 15q-207 139 -352 399q-199 -53 -434 -78q-2 -131 -13 -180q-25 -125 -98 -125 q-43 0 -43 66q0 20 3 78.5t3 93.5q4 152 4 174q0 78 -2 141v141q0 250 23 471q-90 1 -90 64zM293 502q256 31 465 92q348 98 348 229q0 158 -334 250q-190 52 -467 80q-4 -53 -12 -651z" />
<glyph unicode="s" horiz-adv-x="1255" d="M55 932q0 219 240 336q188 94 430 94q395 0 395 -209q0 -57 -43 -137q-51 -88 -104 -88q-31 0 -53 30q-18 25 -19 62q0 41 27 78q-80 49 -258 49q-276 0 -408 -121q-23 -20 -22 -41q0 -137 245 -211l461 -127q248 -100 248 -301q0 -186 -158 -276q-127 -76 -327 -76 q-113 0 -267 24q-178 27 -249 70q-55 35 -56 82q0 51 35 90q34 37 86 37q35 0 158 -31q195 -49 372 -49q72 0 127 14q92 18 93 60q0 109 -248 178q-426 121 -459 137q-246 114 -246 326z" />
<glyph unicode="t" horiz-adv-x="1527" d="M55 1161q0 49 35 94q33 43 84 43q12 0 20.5 -2t18.5 -2q184 0 581.5 57.5t581.5 57.5q100 0 101 -70q0 -98 -101 -133q-35 -12 -110 -16l-119 -4q-104 -6 -242 -27q-219 -33 -241 -35q0 -106 -11 -358q-8 -178 -14 -356v-203q0 -207 -98 -207q-29 0 -43 45 q-23 78 -23 236q0 135 10 415l11.5 218.5t7.5 147.5t2 48q-135 -12 -330 -12q-121 0 -121 63z" />
<glyph unicode="u" horiz-adv-x="1370" d="M61 614q0 123 48 336q45 213 102 324q39 74 86 74q63 0 63 -66q0 -12 -4 -33q0 -2 -75 -280q-47 -170 -48 -285q0 -231 168 -358q152 -111 392 -111q193 0 266 162q51 111 51 332q0 102 -33 284.5t-33 284.5q0 43 39 88t82 45q66 0 107 -274q31 -203 31 -342 q0 -341 -117 -541q-145 -252 -461 -252q-291 0 -473 158q-191 168 -191 454z" />
<glyph unicode="v" horiz-adv-x="1220" d="M41 1253q0 47 33 88q35 45 76 45q27 0 57 -47q49 -80 127 -284q131 -352 235 -738q150 299 322 695l70 168q37 82 83 157q39 63 78 64q29 0 52 -25q20 -23 20 -57q0 -27 -12 -55q-18 -49 -111 -246l-233 -512l-101 -248q-59 -141 -129 -225q-55 -66 -104 -66 q-33 0 -53 43q-12 20 -48 160q-27 115 -84 274l-159 418q-119 313 -119 391z" />
<glyph unicode="w" horiz-adv-x="1708" d="M55 1260q0 41 41 86q39 43 82 43q29 0 53 -43q33 -61 54 -146l18 -69.5t19 -81.5q43 -152 161 -633l230 618l47 127q27 68 61 119q39 59 78 59q55 0 98 -118q16 -41 88 -283q96 -317 205 -586q49 229 121 658q16 102 27 153q23 106 43 154q37 84 96 84q70 0 70 -78 q0 -18 -2 -31q-39 -188 -156 -813q-14 -86 -33 -225q-25 -139 -63 -215q-46 -92 -111 -92q-27 0 -57 43q-43 58 -117 246q-160 403 -248 743q-115 -285 -219 -612q-29 -98 -45 -146q-27 -82 -59 -139q-51 -88 -113 -88q-43 0 -64 61q-12 35 -28 117l-68 268 q-74 309 -205 805q-1 4 -2 10q-2 4 -2 5z" />
<glyph unicode="x" horiz-adv-x="1177" d="M55 74q0 100 398 631q-367 518 -367 569q0 41 30.5 88t71.5 47q16 0 43 -31q14 -14 115 -168l240 -331l186 239q111 133 207 228q41 37 61 36q29 0 47 -24q16 -23 17 -55q0 -35 -27 -76q-16 -23 -129 -156q-90 -104 -266 -330q426 -604 426 -682q0 -37 -33 -79 q-31 -39 -69 -39q-18 0 -41 22q-20 20 -131 199q-39 63 -283 409q-92 -125 -240 -346q-25 -47 -102 -172q-41 -55 -82 -55q-29 0 -51 22q-21 21 -21 54z" />
<glyph unicode="y" horiz-adv-x="1308" d="M57 1044q0 332 140 332q29 0 51 -24q23 -27 22 -58q0 -25 -10 -96.5t-10 -95.5q0 -164 88 -264.5t250 -100.5q141 0 260 74q127 76 166 209q-10 147 -10 225q0 57 30 103q33 51 88 51q96 0 97 -228q0 -63 10 -237q8 -139 8 -240q0 -307 -117 -485q-137 -209 -434 -209 q-96 0 -229 27q-154 27 -215 69q-39 25 -39 60q0 47 33 92q35 47 75 47q2 0 19 -4q281 -78 399 -78q123 0 188.5 43t96.5 158q23 86 22 311q-201 -211 -491 -211q-233 0 -363 152q-125 142 -125 378z" />
<glyph unicode="z" horiz-adv-x="1380" d="M72 1243q0 53 34.5 94t86.5 41q10 0 190 -10q33 -2 159 -6t222 -8l184 -7.5t130 -5.5t48 -2q98 0 99 -65q0 -41 -31 -100q-61 -113 -264 -353l-547 -620q117 2 442 35q297 29 447 28q59 0 59 -65q0 -92 -94 -131q-41 -18 -272 -35q-602 -39 -785 -39q-86 0 -86 74 q0 43 31 94q47 80 125 164l143 149l572 670q-518 27 -695 26q-94 0 -143 13q-55 16 -55 59z" />
<glyph unicode="{" horiz-adv-x="1054" d="M33 614q0 106 108 144q33 12 135 24q86 12 134 37q-12 33 -24.5 63.5l-23.5 57.5q-27 68 -26 125q0 238 369 346q16 4 20 4q51 0 51 -69q0 -72 -47 -109q-25 -18 -100 -43q-74 -23 -107 -53q-8 -8 -8 -19q0 -41 41 -133t41 -141q0 -78 -49 -139q84 -47 84 -158 q0 -55 -29 -166q-27 -104 -27 -168q0 -18 17 -18q45 0 125 37q76 35 117 34q33 0 49 -22q20 -27 20 -58q0 -82 -137 -151q-119 -59 -211 -59q-80 0 -127 59q-41 53 -41 133q0 57 28.5 165.5t33.5 164.5q-51 25 -101 24q-29 0 -49 -2t-47 -2q-219 0 -219 92z" />
<glyph unicode="|" horiz-adv-x="540" d="M106 -264q0 18 3 33q51 319 51 671q0 440 22 840q0 45 17 160q27 104 108 104q59 0 60 -80q0 -31 -7 -323q-2 -45 -4 -170t-6 -260.5l-8 -274.5l-31 -481q0 -63 -14 -164q-31 -115 -127 -115q-64 1 -64 60z" />
<glyph unicode="}" horiz-adv-x="1052" d="M150 1210q0 61 77 115q145 96 269 96q80 0 122 -55q41 -53 41 -139q0 -55 -22 -164q-31 -129 -33 -164q51 -23 84 -22h57q14 0 34 1t24 1q219 0 219 -93q0 -45 -33 -90q-31 -43 -78 -55q-23 -8 -135 -23q-84 -12 -133 -36l45 -121q25 -72 25 -125q0 -244 -367 -346 q-16 -4 -20 -4q-49 0 -50 69q0 76 48 111q23 16 102 41q68 20 100 53q10 10 11 21q0 39 -41 131q-39 86 -39 143q0 74 49 135q-88 51 -88 160q0 55 28 170q27 106 27 168q0 14 -16 14q-47 0 -127 -37t-113 -37q-67 0 -67 82z" />
<glyph unicode="~" horiz-adv-x="1343" d="M94 631q0 39 31 82q49 71 135 116q88 47 172 48q96 0 239.5 -82t194.5 -82q47 0 101 116q51 115 112 115q70 0 70 -76q0 -123 -107 -243q-109 -123 -231 -123q-78 0 -217 82q-135 80 -211 80q-66 0 -131 -60q-63 -57 -92 -57q-31 0 -49 28q-17 23 -17 56z" />
<glyph unicode="&#xa1;" horiz-adv-x="505" d="M63 -96q0 92 37 233q57 217 60 232q8 82 47 258q37 109 121 108q53 0 53 -63q0 -59 -31 -213l-80 -367q-10 -66 -49 -188q-37 -78 -102 -78q-56 0 -56 78zM246 1010q0 68 26 123q37 72 93 71q61 0 61 -61l-10 -72q-2 -6 -3 -19.5t-1 -19.5q-6 -37 -35 -71 q-27 -33 -68 -33q-63 0 -63 82z" />
<glyph unicode="&#xa2;" horiz-adv-x="1236" d="M80 682q0 250 260 467q248 207 504 207q39 94 114 235q37 55 74 56q31 0 49 -23q20 -25 21 -53q0 -39 -105 -248q51 -20 117 -68q74 -55 74 -102q0 -41 -31 -78t-72 -37q-14 0 -84 45l-35.5 21.5t-23.5 15.5l-14 10.5t-9.5 5.5t-5.5 3t-4 2l-311 -656q49 -6 207 -6 q113 0 151 -12q55 -16 56 -64q0 -49 -27 -88t-72 -51q-25 -6 -69 -6q-246 0 -346 21l-133 -277q-25 -51 -76 -51q-31 0 -49.5 24.5t-18.5 53.5q0 35 127 295q-268 108 -268 358zM260 729q0 -131 184 -201l299 623q-123 -18 -241.5 -90t-184.5 -174q-57 -90 -57 -158z" />
<glyph unicode="&#xa3;" horiz-adv-x="1415" d="M176 82q0 111 111 149q16 6 84 27q43 20 43 70q0 61 -58 194q-49 0 -63 6q-33 10 -33 54q0 39 31 90q-61 143 -62 250q0 174 166 315q158 135 334 135q100 0 156 -55q53 -53 53 -154q0 -197 -119 -196q-66 0 -65 67q0 20 4 37q6 25 6 37q0 53 -64 53q-94 0 -178 -57 q-96 -66 -96 -148q0 -57 84 -235q200 6 393 6q123 0 123 -72q0 -53 -35 -94q-37 -43 -88 -43q-8 0 -43 1t-59.5 1t-58 1t-42.5 1h-114q23 -80 22 -162q0 -53 -26 -118q74 2 168 2h313q114 0 178 -19q61 -18 62 -65q0 -111 -107 -144q-49 -16 -162 -16q-43 0 -387 4 q-172 2 -387 2q-84 0 -84 76z" />
<glyph unicode="&#xa4;" horiz-adv-x="1378" d="M225 1006q0 45 33 90t78 45q18 0 49 -31l133 -135q125 109 199 108q72 0 170 -67q141 141 192 141q31 0 54 -24q20 -23 20 -58q0 -59 -55 -108l-101 -80q43 -84 43 -182q0 -108 -55 -203q125 -119 125 -170q0 -47 -33 -88q-34 -43 -80 -43q-37 0 -190 159 q-41 -10 -78 -10q-74 0 -137 25q-188 -162 -225 -162q-70 0 -70 78q0 66 147 188q-68 80 -67 172q0 72 22 144q-174 141 -174 211zM561 733q0 -66 68 -117q66 -51 137 -51q88 0 88 84q0 133 -160 211q-55 -10 -90 -41q-43 -37 -43 -86z" />
<glyph unicode="&#xa5;" horiz-adv-x="1617" d="M152 410q0 98 100 129q74 23 219 22h12q61 0 111 4q-360 637 -361 670q0 41 35 82q33 39 78 39q33 0 64 -39q31 -43 120 -219q127 -248 252 -459q293 477 496 713q47 53 88 53q29 0 49 -21q23 -23 23 -49q0 -47 -164 -284l-318 -455q387 33 467 33q70 0 70 -72 q0 -90 -92 -121q-18 -6 -178 -16q-12 0 -377 -35v-74q150 12 330 13q84 0 84 -64q0 -108 -117 -135q-43 -12 -201 -12q-31 0 -84 -4q0 -45 -33 -89q-33 -45 -80 -45q-61 0 -67 113q-125 -23 -184 -35q-111 -25 -187 -24q-66 0 -65 63q0 84 80 131q61 35 176 49l166 19v76 q-340 -31 -435 -31q-77 0 -77 74z" />
<glyph unicode="&#xa6;" horiz-adv-x="565" d="M152 1454q0 52 24 92q29 47 82 47t68 -51q6 -23 6 -92v-98q0 -74 6 -226q8 -201 8 -227q0 -53 -35 -88q-39 -39 -86 -39q-45 0 -53 62q0 66 -6 200q-14 346 -14 420zM188 -270q0 53 6.5 161.5t6.5 161.5q0 68 -2 121q-4 106 -4 123q0 37 26.5 69.5t61.5 32.5q29 0 41 -47 q27 -102 26 -254v-139q0 -301 -112 -301q-50 0 -50 72z" />
<glyph unicode="&#xa8;" horiz-adv-x="1161" d="M219 1579q0 10 21 117q25 123 112 123q70 0 70 -97q0 -14 -19 -90q-18 -90 -28 -106q-27 -57 -86 -58q-70 0 -70 111zM739 1591q0 72 31 146q41 92 104.5 92t63.5 -76q0 -12 -12 -82q-10 -57 -11 -80q0 -43 -32 -78q-35 -39 -72 -38.5t-57 43.5q-15 30 -15 73z" />
<glyph unicode="&#xa9;" horiz-adv-x="2119" d="M178 602q0 223 109 436q111 223 299 332q74 41 127 57q8 2 25.5 8.5t41.5 12.5l66 27q109 33 217 32q340 0 606 -217q285 -233 285 -563q0 -381 -324 -621q-297 -219 -688 -219q-334 0 -545 189q-219 196 -219 526zM367 655q0 -252 194 -403q182 -139 440 -139 q356 0 578 190q186 162 186 379q0 55 -16 104q-63 211 -266 357q-199 143 -424 143q-313 0 -496 -158q-196 -166 -196 -473zM729 618q0 160 111 289q115 137 270 137q164 0 164 -81q0 -39 -31 -84t-72 -45q-20 0 -46.5 8t-45.5 8q-74 0 -121 -51q-45 -47 -45 -125 q0 -123 152 -123q22 0 68 6q61 8 67 8q53 0 53 -67q0 -162 -252 -162q-127 0 -198 78q-74 79 -74 204z" />
<glyph unicode="&#xab;" horiz-adv-x="1511" d="M125 375q0 57 63 119q49 49 242 178q209 141 242 141q57 0 57 -80q0 -55 -49 -104q-47 -47 -141 -107q-109 -70 -146 -98l191 -129q139 -104 139 -160q0 -47 -37 -90q-39 -45 -82 -45q-45 0 -233 139q-186 139 -224 185q-22 28 -22 51zM770 399q0 59 61 115 q39 37 209 137q180 106 211 106.5t52 -24.5q20 -23 20 -59q0 -68 -82 -123l-203 -121q135 -109 156 -127q106 -98 106 -147q0 -45 -28 -90q-31 -51 -78 -52q-31 0 -201 144q-178 150 -200 184q-23 32 -23 57z" />
<glyph unicode="&#xad;" horiz-adv-x="1142" d="M219 690q0 100 103 131q49 14 182 15h348q90 0 90 -64q0 -109 -98 -133q-23 -4 -172 -10l-373 -19q-80 0 -80 80z" />
<glyph unicode="&#xae;" horiz-adv-x="2097" d="M178 596q0 223 107 430q113 223 295 328q45 27 125 55l65 18q4 2 66 29q102 33 219 33q332 0 598 -213q279 -229 278 -555q0 -377 -317 -615q-293 -219 -680 -219q-336 0 -541 187q-215 193 -215 522zM367 649q0 -248 190 -399q178 -137 434 -137q362 0 584 198 q174 160 174 363q0 55 -16 102q-66 209 -267 352q-201 141 -422 142q-303 0 -485 -158q-192 -166 -192 -463zM606 948q0 78 70 117q71 40 209 68q127 25 217 24q121 0 205 -51q104 -61 104 -174q0 -164 -205 -307q102 -150 103 -219q0 -45 -29 -82q-31 -39 -74 -39 q-35 0 -61 39q-43 74 -125 198q-37 -15 -111 -37q-6 -113 -16 -145q-25 -86 -98 -86q-57 0 -58 70q0 49 6 143q4 63 5 143q0 39 -6.5 113t-6.5 113q0 34 6 61q-47 -20 -75 -20q-60 -1 -60 71zM899 938q16 -143 16 -264q129 57 181 86q121 66 139 123q-33 70 -191 69 q-55 0 -145 -14z" />
<glyph unicode="&#xaf;" horiz-adv-x="1357" d="M252 1229v137h852v-137h-852z" />
<glyph unicode="&#xb0;" horiz-adv-x="1089" d="M170 922q0 170 90 241q18 78 143 142q109 55 201 55q135 0 225 -88q92 -89 93 -221q0 -172 -137.5 -307.5t-311.5 -135.5q-133 0 -217 90q-86 93 -86 224zM340 967q0 -74 53 -115t129 -41q86 0 154 55q66 53 65 140q0 68 -59 106.5t-125 38.5q-43 0 -100 -29 q-20 -12 -92 -51q-25 -61 -25 -104z" />
<glyph unicode="&#xb1;" horiz-adv-x="1032" d="M131 690q0 47 33 92q35 47 78 47q10 0 88 -4q39 -2 86 -2v21q0 43 -2 78q-4 70 -4 79q0 47 39 89q39 43 83 43q66 0 66 -172q0 -53 -2 -138q59 0 123 2q102 4 125 4q100 0 100 -67q0 -102 -94 -127q-51 -14 -227 -14q-41 0 -48 -68q-6 -72 -14 -98q-29 -102 -108 -103 q-57 0 -58 72q0 27 15 197q-68 -2 -226 10q-53 12 -53 59zM145 98q0 106 107 131q63 14 192 15h332q92 0 92 -66q0 -109 -98 -133q-10 -2 -174 -8q-34 -3 -184 -12q-152 -8 -187 -9q-80 0 -80 82z" />
<glyph unicode="&#xb4;" horiz-adv-x="524" d="M68 1524q0 39 34 92q29 47 193 297q41 59 88 59q61 0 61 -78q0 -51 -94 -208q-88 -145 -137 -195q-41 -41 -78 -41q-67 0 -67 74z" />
<glyph unicode="&#xb6;" horiz-adv-x="1937" d="M115 705q0 229 207 405q319 272 821 272q242 0 565 -90q121 -35 121 -86q0 -49 -39 -90q-41 -45 -84 -45q-6 0 -27 4q-375 92 -542 92q-418 0 -641 -145q-197 -127 -197 -274q0 -133 170 -238q145 -86 291 -104q16 252 16 491q0 186 111 186q66 0 65 -82q0 -250 -20 -598 q43 -18 43 -67q0 -68 -53 -115l-23 -313q-12 -158 -12 -162q-22 -98 -105 -98q-61 0 -61 82q0 61 24 465q-242 6 -421 135q-209 148 -209 375zM1104 -295q0 119 22 379q20 238 21 375q0 86 -12.5 262t-12.5 260q0 45 39 84t80 39q39 0 51 -60q8 -45 15 -157q20 -362 20 -510 q0 -506 -55 -645q-41 -102 -115 -103q-53 0 -53 76z" />
<glyph unicode="&#xb7;" horiz-adv-x="530" d="M164 692q0 57 39 114.5t92 57.5q70 0 70 -80q0 -57 -39 -110t-97 -53q-65 -1 -65 71z" />
<glyph unicode="&#xbb;" horiz-adv-x="1421" d="M188 59q0 59 45 111q53 59 160 129q133 90 172 121l-176 94q-109 59 -160 115q-31 37 -30 71q0 49 30.5 98.5t77.5 49.5q18 0 88 -47q61 -41 90 -64q2 -2 9.5 -5t46.5 -24.5l104 -56.5q104 -57 146 -100q39 -39 38 -82q0 -45 -38 -92q-45 -57 -269 -223 q-227 -170 -278 -170q-56 -1 -56 75zM725 782q0 49 33 90q33 43 76 43q39 0 233 -157q199 -162 225 -203q20 -33 21 -57q0 -45 -39 -98.5t-215 -204.5q-184 -158 -225 -158q-68 0 -68 92q0 71 123 178l184 146q-23 23 -182 139q-129 94 -158 149q-8 16 -8 41z" />
<glyph unicode="&#xbf;" horiz-adv-x="1236" d="M33 106q0 182 153 287q102 68 334 129q260 70 330 107q-20 29 -21 61q0 45 27 84q31 47 72 47q47 0 79.5 -57t32.5 -105q0 -150 -200 -245q-49 -25 -326 -99q-231 -61 -293 -122q-6 -6 -6 -17q0 -150 367 -149q176 0 331 71q37 18 50 19q29 0 49 -27q18 -25 18 -55 q0 -55 -51 -98q-61 -51 -238 -87q-139 -27 -258 -26q-182 0 -295 53q-155 73 -155 229zM797 1049q0 18 28 71q37 68 39 70q29 37 68 37q59 0 59 -70q0 -57 -39 -115q-41 -66 -96 -65q-59 0 -59 72z" />
<glyph unicode="&#xc0;" horiz-adv-x="1064" d="M39 53q0 49 162 473l202 525l58 153q37 84 78 146q41 59 86 59q47 0 73 -63q37 -84 68 -230l51 -233q82 -244 215 -727q4 -20 4 -27q0 -46 -37 -92q-37 -47 -79 -47q-53 0 -107 176q-40 -6 -104 -6h-86q-20 0 -49 1t-35 1h-293q-66 -182 -140 -182q-67 -1 -67 73z M301 313h461q-95 289 -191 707q-12 -29 -270 -707zM336 1911q0 49 37 92t84 43q35 0 61 -41l100 -186q35 -51 87 -144q16 -33 16 -49q0 -46 -31 -92q-31 -45 -76 -45q-29 0 -53 22q-41 35 -133 197q-92 164 -92 203z" />
<glyph unicode="&#xc1;" horiz-adv-x="1071" d="M14 53q0 49 162 473l205 525q39 104 55 153q37 84 78 146q41 59 86 59q47 0 74 -63q37 -84 67 -230l54 -233q82 -244 215 -727q2 -10 2 -27q0 -46 -37 -92q-37 -47 -78 -47q-53 0 -106 176q-41 -6 -107 -6h-84q-20 0 -50 1t-36 1h-293q-66 -182 -139 -182q-68 -1 -68 73z M279 313h458q-88 268 -188 707q-12 -29 -270 -707zM530 1563q0 39 35 92q53 88 191 297q43 57 90 57q61 0 61 -78q0 -49 -96 -207q-90 -152 -135 -196q-39 -39 -78 -39q-68 0 -68 74z" />
<glyph unicode="&#xc2;" horiz-adv-x="1081" d="M35 53q0 43 164 473l202 525q39 104 56 153q37 84 78 146q41 59 86 59q47 0 73 -63q41 -94 70 -230q43 -206 49 -233q82 -244 215 -727q4 -20 4 -27q0 -46 -37 -92q-37 -47 -80 -47q-51 0 -104 176q-41 -6 -106 -6h-84q-20 0 -49 1t-35 1h-295q-66 -182 -140 -182 q-67 -1 -67 73zM233 1538q0 35 115 221q104 168 148 223q49 61 90 61.5t213 -196t172 -241.5q0 -37 -29 -82q-29 -43 -70 -43q-49 0 -159 135l-146 182l-82 -143q-63 -104 -92 -137q-43 -49 -86 -50q-31 0 -51 21q-23 22 -23 49zM299 313h459q-95 289 -191 707 q-4 -12 -9 -25.5t-13 -33t-26.5 -68.5l-43 -114.5l-72 -189.5z" />
<glyph unicode="&#xc3;" horiz-adv-x="1153" d="M57 53q0 43 164 473l205 525q39 104 55 153q39 92 76 146q41 59 88 59t74 -63q37 -84 67 -230l52 -233q82 -244 215 -727q4 -20 4 -27q0 -46 -37 -92q-37 -47 -80 -47q-51 0 -104 176q-41 -6 -107 -6h-84q-20 0 -50 1t-36 1h-293q-66 -182 -139 -182q-70 -1 -70 73z M170 1561q0 86 121 153q106 61 201 62q72 0 182 -51.5t162 -51.5q41 0 94 56q51 53 88 53q31 0 49 -25q20 -27 20 -57q0 -22 -18 -55q-37 -74 -114.5 -125.5t-159.5 -51.5q-66 0 -176.5 51.5t-176.5 51.5q-57 0 -120.5 -43t-83.5 -43q-68 0 -68 76zM324 313h458 q-95 289 -190 707q-4 -12 -9 -25.5t-13.5 -33t-27 -68.5l-43 -114.5l-71.5 -189.5z" />
<glyph unicode="&#xc4;" horiz-adv-x="1112" d="M45 53q0 39 166 473l203 525q39 104 55 153q37 84 78 146q41 59 86 59q47 0 74 -63q37 -84 67 -230l51 -233q82 -244 215 -727q4 -20 4 -27q0 -46 -36 -92q-37 -47 -80 -47q-51 0 -105 176q-41 -6 -106 -6h-84q-20 0 -49 1t-35 1h-295q-66 -182 -139 -182q-70 -1 -70 73z M274 1579q0 10 21 117q22 123 111 123q70 0 69 -97q0 -23 -16 -90q-16 -80 -29 -106q-27 -57 -88 -58q-68 0 -68 111zM311 313h459q-95 289 -190 707q-4 -12 -9.5 -25.5l-13.5 -33t-26.5 -68.5l-43 -114.5l-72 -189.5zM795 1591q0 72 30 146q39 92 102.5 92t63.5 -76 q0 -25 -10 -82t-10 -80q0 -43 -33 -78q-35 -39 -74 -38q-33 0 -55 43q-14 30 -14 73z" />
<glyph unicode="&#xc5;" horiz-adv-x="1128" d="M35 53q0 43 164 473l202 525q39 104 56 153q37 84 78 146q41 59 86 59q47 0 73 -63q41 -94 70 -230q43 -206 49 -233q82 -244 215 -727q4 -20 4 -27q0 -46 -37 -92q-37 -47 -80 -47q-51 0 -104 176q-41 -6 -106 -6h-84q-20 0 -49 1t-35 1h-295q-66 -182 -140 -182 q-67 -1 -67 73zM299 313h459q-95 289 -191 707q-4 -12 -9 -25.5t-13 -33t-26.5 -68.5l-43 -114.5l-72 -189.5zM311 1825q0 170 90 241q18 80 142 142q104 53 200 53q131 0 225.5 -88t94.5 -219q0 -174 -139 -309q-137 -135 -312 -136q-131 0 -217 93q-84 90 -84 223z M479 1870q0 -76 53.5 -117t129.5 -41q84 0 153 57q68 55 68 140q0 66 -62 106q-55 37 -123 37q-49 0 -102 -27q-45 -27 -92 -51q-25 -69 -25 -104z" />
<glyph unicode="&#xc6;" horiz-adv-x="1792" d="M47 49q0 14 90 250q84 244 275 752q53 133 59 149q33 78 74 146q35 59 88 59q49 0 74 -66q39 -104 65 -235q37 -184 51 -244q33 154 39 268q-35 10 -35 58q0 41 27 84q25 41 64 47q29 23 67 22q18 0 29 -6q74 10 459 35q45 2 84.5 5t57.5 4l17 1q66 0 66 -61 q0 -84 -82 -111q-16 -4 -189 -20q-184 -14 -391 -39q-6 -70 -61 -365q188 37 420 37q86 0 86 -76q0 -92 -92 -114q-27 -8 -138 -17q-141 -14 -305 -22q-2 -27 -2 -78q0 -322 215 -322q84 0 244 50q166 51 242 51q90 0 90 -62q0 -98 -101 -133q-12 -6 -98 -20 q-104 -18 -178 -43q-188 -57 -236 -58q-111 0 -198 60q-86 59 -121 164h-533q-45 -119 -55 -140q-45 -88 -100 -88q-68 0 -68 78zM330 350h424q-90 252 -174 656l-24.5 -64l-30 -79l-71.5 -187.5z" />
<glyph unicode="&#xc8;" horiz-adv-x="1036" d="M51 444q0 131 45 351q45 231 51 348q-35 12 -34 57q0 100 88 125q31 35 69 35q16 0 31 -14q289 43 619 43q63 0 63 -60q0 -78 -84 -108q-29 -10 -186 -21q-115 -8 -391 -39q-8 -76 -64 -360q162 29 414 28q94 0 94 -75q0 -84 -94 -113q-31 -8 -127 -14q-104 -6 -314 -25 q-2 -27 -2 -76q0 -326 215 -325q82 0 238 53t238 53q96 0 96 -63q0 -114 -142 -154l-233 -45l-115 -35q-63 -20 -118 -20q-357 -1 -357 454zM305 1888q0 47 37 90t84 43q37 0 63 -41l101 -186q41 -63 86 -141q14 -29 14 -49q0 -51 -28 -95q-31 -45 -76 -45q-25 0 -54 25 q-39 33 -133 194.5t-94 204.5z" />
<glyph unicode="&#xc9;" horiz-adv-x="1042" d="M35 444q0 131 45 351q41 217 49 348q-33 12 -33 57q0 100 86 125q31 35 72 35q16 0 31 -14q289 43 618 43q63 0 64 -60q0 -78 -84 -108q-27 -10 -189 -21q-115 -8 -391 -39q-8 -96 -61 -360q162 29 413 28q92 0 93 -75q0 -86 -93 -113q-35 -8 -129 -14q-98 -6 -311 -25 q-2 -27 -2 -76q0 -326 213 -325q82 0 237.5 53t239.5 53q94 0 94 -63q0 -114 -141 -154l-231 -45l-115 -35q-63 -20 -119 -20q-356 -1 -356 454zM459 1524q0 39 35 92l190 297q45 59 88 59q63 0 64 -78q0 -51 -95 -208q-88 -145 -137 -195q-41 -41 -78 -41q-67 0 -67 74z " />
<glyph unicode="&#xca;" horiz-adv-x="1052" d="M49 444q0 131 45 351q45 231 51 348q-35 12 -34 57q0 100 88 125q31 35 71 35q16 0 29 -14q289 43 619 43q63 0 63 -60q0 -78 -84 -108q-29 -10 -186 -21q-106 -8 -392 -39q-6 -68 -61 -360q160 29 414 28q92 0 92 -75q0 -86 -92 -113q-35 -8 -129 -14q-104 -6 -314 -25 q-2 -27 -2 -76q0 -326 215 -325q82 0 238 53t238 53q96 0 96 -63q0 -114 -142 -154l-233 -45l-115 -35q-63 -20 -118 -20q-357 -1 -357 454zM201 1538q0 39 112 221q96 158 150 223q49 61 88 62q43 0 215 -196.5t172 -241.5q0 -35 -31 -82q-27 -43 -69 -43q-49 0 -160 135 l-143 182l-82 -143q-59 -96 -95 -137q-43 -49 -86 -50q-31 0 -51 20.5t-20 49.5z" />
<glyph unicode="&#xcb;" horiz-adv-x="1077" d="M57 444q0 115 45 351q45 231 52 348q-35 12 -35 57q0 100 88 125q31 35 72 35q16 0 30 -14q289 43 619 43q61 0 61 -60q0 -78 -84 -108q-29 -10 -186 -21q-115 -8 -391 -39q-8 -96 -62 -360q162 29 414 28q90 0 90 -75q0 -86 -90 -113q-35 -8 -129 -14q-98 -6 -311 -25 q-4 -53 -4 -76q0 -326 215 -325q82 0 237.5 53t239.5 53q94 0 94 -63q0 -114 -141 -154l-232 -45q-18 -6 -57 -17.5l-60 -17.5q-63 -20 -116 -20q-359 -1 -359 454zM229 1579q0 10 21 117q25 123 112 123q70 0 70 -97q0 -23 -16 -90q-14 -70 -31 -106q-27 -57 -86 -58 q-70 0 -70 111zM750 1591q0 74 32 146q41 92 102.5 92t61.5 -76q0 -35 -8 -82q-10 -57 -10 -80q0 -39 -35 -77.5t-72 -38.5q-35 0 -55 43q-16 36 -16 73z" />
<glyph unicode="&#xcc;" horiz-adv-x="727" d="M49 43q0 84 68 121q43 23 141 35q10 121 16 479q6 330 21 479q-25 0 -49 -2q-10 0 -25.5 -1t-21.5 -1q-131 0 -131 88q0 45 28.5 86t73.5 41q10 0 47 1t65.5 1t65.5 1t45 1h156q70 0 106 -10q53 -16 54 -62q0 -106 -99 -137q-25 -8 -78 -8q-27 0 -69 2q0 -639 -33 -940 q115 8 184 8q80 0 80 -84q0 -109 -104 -135q-6 -2 -129 -12q-305 -23 -342 -23q-70 0 -70 72zM121 1890q0 49 37 92t84 43q37 0 63 -43l98 -184q27 -41 89 -143q16 -33 16 -49q0 -43 -33 -93q-31 -45 -74 -45q-25 0 -53 25q-35 29 -133 195q-94 157 -94 202z" />
<glyph unicode="&#xcd;" horiz-adv-x="727" d="M14 43q0 84 68 121q43 23 141 35q12 154 19 479q6 352 16 479q-20 0 -45 -2q-10 0 -26.5 -1t-22.5 -1q-131 0 -131 88q0 45 28.5 86t73.5 41q8 0 46 1t66.5 1t66.5 1t46 1h154q66 0 107 -10q53 -16 53 -62q0 -106 -96 -137q-25 -8 -80 -8q-27 0 -70 2q0 -608 -33 -940 q115 8 185 8q80 0 79 -84q0 -108 -104 -135q-4 -2 -129 -12q-305 -23 -340 -23q-72 0 -72 72zM279 1524q0 41 32 92l193 297q45 59 88 59q63 0 63 -78q0 -47 -96 -208q-90 -150 -135 -195q-41 -41 -80 -41q-65 0 -65 74z" />
<glyph unicode="&#xce;" horiz-adv-x="815" d="M43 1538q0 33 117 221q104 168 147 223q49 61 88 62q43 0 215 -196.5t172 -241.5q0 -37 -28 -82q-29 -43 -72 -43q-49 0 -160 135l-143 182l-82 -143q-59 -96 -94 -137q-43 -49 -84 -50q-33 0 -53 21q-23 22 -23 49zM63 43q0 86 66 121q43 23 141 35q12 154 19 479 q6 316 18 479q-25 0 -49 -2q-10 0 -24.5 -1t-20.5 -1q-133 0 -133 88q0 45 28.5 86t73.5 41q10 0 47 1t66 1t65.5 1t47.5 1h153q68 0 109 -10q53 -16 53 -62q0 -106 -98 -137q-25 -8 -78 -8q-29 0 -72 2q0 -630 -31 -940q115 8 185 8q80 0 80 -84q0 -109 -107 -135 q-6 -2 -129 -12q-305 -23 -340 -23q-70 0 -70 72z" />
<glyph unicode="&#xcf;" horiz-adv-x="835" d="M63 1579q0 22 19 117q25 123 113 123q70 0 69 -97q0 -23 -16 -90q-18 -84 -31 -106q-27 -57 -86 -58q-68 0 -68 111zM78 43q0 84 65 121q43 23 142 35q10 121 16 479q6 330 21 479q-25 0 -50 -2q-10 0 -25.5 -1t-21.5 -1q-131 0 -131 88q0 45 29 86t74 41q8 0 47 1 t65.5 1t65.5 1t47 1h153q66 0 107 -10q53 -16 53 -62q0 -106 -96 -137q-25 -8 -80 -8q-27 0 -70 2q0 -639 -32 -940q115 8 184 8q82 0 82 -84q0 -109 -107 -135q-6 -2 -129 -12q-305 -23 -340 -23q-69 0 -69 72zM582 1591q0 68 32 146q41 92 103 92q63 0 63 -76 q0 -25 -10 -82t-10 -80q0 -39 -35 -77.5t-72 -38.5q-35 0 -55 43q-16 36 -16 73z" />
<glyph unicode="&#xd1;" horiz-adv-x="1144" d="M68 45q0 127 22 391q27 285 29 389v205q0 336 127 336q25 0 55 -43q45 -68 92 -152l40.5 -73.5t23.5 -42l10 -19.5l8 -16l391 -617q0 51 4 262.5l7 368.5q4 117 4 121q2 70 18 119q33 104 113 104q55 0 55 -80q0 -182 -8 -446t-8 -449q0 -154 -23 -237q-16 -57 -45 -98 q-39 -57 -84 -58q-20 0 -45 29q-47 55 -192 283l-377 614q-18 -383 -35 -633q0 -20 -4 -59t-4 -60q-6 -71 -25 -116q-35 -96 -104 -97q-45 0 -45 74zM150 1561q0 86 120 153q108 61 203 62q72 0 182.5 -51.5t161.5 -51.5q43 0 94 56q51 53 86 53q33 0 51.5 -24.5t18.5 -57.5 q0 -25 -16 -55q-37 -74 -115 -125.5t-162 -51.5q-66 0 -176.5 51.5t-173.5 51.5q-55 0 -121 -43q-65 -43 -86 -43q-67 0 -67 76z" />
<glyph unicode="&#xd2;" d="M43 592q0 197 86 369q88 180 252 280q53 125 313 125q270 0 443 -209q158 -195 157 -473q0 -287 -161 -479q-170 -207 -451 -207q-274 0 -453 160q-186 166 -186 434zM217 664q0 -206 148 -338q139 -125 352 -125q182 0 286.5 118.5t104.5 305.5q0 236 -143 379 q-139 139 -379 139q-47 0 -142 -58q-227 -138 -227 -421zM393 1890q0 49 37 92t84 43q35 0 64 -43l98 -184q47 -72 88 -143q14 -29 14 -49q0 -46 -30 -93q-31 -45 -76 -45q-25 0 -51 25q-41 35 -134 195q-94 163 -94 202z" />
<glyph unicode="&#xd3;" d="M29 592q0 193 88 369q94 184 250 280q53 125 315 125q268 0 440 -209q160 -194 160 -473q0 -287 -162 -479q-170 -207 -452 -207q-274 0 -453 160q-186 166 -186 434zM205 664q0 -206 147 -338q139 -125 350 -125q182 0 287 118.5t105 305.5q0 238 -142 379 q-139 139 -381 139q-45 0 -139 -58q-227 -138 -227 -421zM584 1524q0 39 34 92q53 88 191 297q41 59 88 59q63 0 64 -78q0 -47 -97 -208q-90 -150 -135 -195q-41 -41 -80 -41q-65 0 -65 74z" />
<glyph unicode="&#xd4;" horiz-adv-x="1337" d="M41 592q0 197 86 369q88 180 252 280q53 125 313 125q270 0 443 -209q160 -194 159 -473q0 -287 -161 -479q-170 -207 -453 -207q-274 0 -453 160q-186 166 -186 434zM217 664q0 -206 148 -338q139 -125 350 -125q182 0 286.5 118.5t104.5 305.5q0 236 -143 379 q-139 139 -379 139q-45 0 -140 -58q-227 -138 -227 -421zM322 1538q0 39 112 221q96 158 150 223q49 61 88 62q43 0 215 -196.5t172 -241.5q0 -35 -31 -82q-29 -43 -70 -43q-49 0 -159 135l-144 182l-82 -143q-59 -96 -94 -137q-43 -49 -86 -50q-31 0 -51 20.5t-20 49.5z " />
<glyph unicode="&#xd5;" horiz-adv-x="1363" d="M51 592q0 197 86 369q92 182 252 280q53 125 313 125q273 0 443 -209q160 -194 160 -473q0 -287 -162 -479q-170 -207 -455 -207q-272 0 -450 160q-187 166 -187 434zM227 664q0 -206 148 -338q139 -125 350 -125q182 0 286.5 118.5t104.5 305.5q0 236 -143 379 q-139 139 -379 139q-45 0 -139 -58q-228 -138 -228 -421zM268 1561q0 86 121 153q108 61 203 62q70 0 180.5 -51.5t163.5 -51.5q39 0 92 56q51 53 88 53q33 0 51.5 -24.5t18.5 -57.5q0 -25 -17 -55q-37 -72 -116 -125q-78 -51 -160 -52q-66 0 -176.5 51.5t-175.5 51.5 q-53 0 -119 -43q-65 -43 -86 -43q-68 0 -68 76z" />
<glyph unicode="&#xd6;" horiz-adv-x="1353" d="M47 592q0 193 88 369q90 182 250 280q53 125 315 125q270 0 443 -209q158 -195 157 -473q0 -287 -161 -479q-170 -207 -453 -207q-274 0 -453 160q-186 166 -186 434zM223 664q0 -206 148 -338q139 -125 352 -125q182 0 287 118q102 117 102 306q0 238 -141 379 q-139 139 -379 139q-47 0 -141 -58q-228 -138 -228 -421zM358 1579q0 22 19 117q25 123 112 123q70 0 70 -97q0 -23 -16 -90q-16 -80 -29 -106q-27 -57 -88 -58q-68 0 -68 111zM877 1591q0 74 32 146q41 92 103 92q63 0 63 -76q0 -25 -10 -82t-10 -80q0 -43 -33 -78 q-35 -39 -74 -38q-35 0 -55 43q-16 36 -16 73z" />
<glyph unicode="&#xd7;" horiz-adv-x="1173" d="M207 410q0 41 39 88q37 41 200 190l-118 107q-82 80 -82 127q0 49 37 92q39 45 82 45q23 0 53 -25q29 -20 102 -94l101 -96q256 231 284 231q63 0 64 -90q0 -57 -82 -141l-129 -119l108 -94q72 -68 72 -117q0 -41 -35 -88q-33 -45 -76 -45q-37 0 -241 184l-224 -209 q-45 -39 -77.5 -39t-55 29t-22.5 64z" />
<glyph unicode="&#xd8;" d="M41 592q0 197 86 369q88 180 252 280q53 125 313 125q70 0 139 -16q23 94 39 127q37 72 99 71q70 0 69 -78q0 -33 -41 -190q147 -90 224 -258q74 -157 73 -338q0 -287 -161 -479q-170 -207 -453 -207q-78 0 -135 10q-8 -25 -16.5 -46l-14.5 -36l-51 -155 q-43 -92 -117 -92.5t-74 69.5q0 29 103 311q-162 76 -248 215q-86 142 -86 318zM217 664q0 -268 234 -398l315 852q-86 25 -182 25q-45 0 -140 -58q-227 -138 -227 -421zM621 209q57 -8 94 -8q182 0 286.5 118.5t104.5 305.5q0 272 -180 413q-49 -153 -305 -829z" />
<glyph unicode="&#xd9;" d="M45 614q0 123 47 336q51 223 103 324q39 74 88 74q61 0 61 -66q0 -23 -2 -33q0 -2 -8 -30.5l-28.5 -100l-41.5 -149.5q-47 -170 -47 -285q0 -233 168 -358q152 -111 391 -111q193 0 266 162q51 111 52 332q0 102 -33 284.5t-33 284.5q0 41 41 88q39 45 82 45 q63 0 104 -274q31 -203 31 -342q0 -344 -115 -541q-145 -252 -462 -252q-291 0 -473 158q-191 168 -191 454zM408 1890q0 47 38 92q37 43 82 43q37 0 64 -43l98 -184q47 -72 88 -143q16 -33 17 -49q0 -46 -31 -93q-31 -45 -76 -45q-25 0 -53 25q-35 29 -133 195 q-94 157 -94 202z" />
<glyph unicode="&#xda;" d="M35 614q0 131 45 336q51 223 102 324q39 74 88 74q63 0 64 -66q0 -12 -4 -33q0 -2 -7.5 -29.5l-29 -103.5t-39.5 -147q-47 -170 -47 -285q0 -231 168 -358q150 -111 391 -111q190 0 264 162q51 111 51 332q0 102 -32 284q-31 170 -31 285q0 43 39 88t82 45q63 0 104 -274 q33 -217 33 -342q0 -341 -117 -541q-145 -252 -463 -252q-291 0 -473 158q-188 167 -188 454zM580 1524q0 41 32 92q29 47 193 297q41 59 88 59q63 0 63 -78q0 -47 -96 -208q-86 -141 -135 -195q-41 -41 -80 -41q-65 0 -65 74z" />
<glyph unicode="&#xdb;" horiz-adv-x="1339" d="M45 614q0 123 47 336q51 223 103 324q39 74 88 74q61 0 61 -66q0 -23 -2 -33q0 -2 -8 -30.5l-28.5 -100l-41.5 -149.5q-47 -170 -47 -285q0 -233 168 -358q152 -111 391 -111q193 0 266 162q51 111 52 332q0 102 -33 284.5t-33 284.5q0 41 41 88q39 45 82 45 q63 0 104 -274q31 -203 31 -342q0 -344 -115 -541q-145 -252 -462 -252q-291 0 -473 158q-191 168 -191 454zM315 1538q0 35 115 221q104 168 148 223q49 61 90 61.5t213 -196t172 -241.5q0 -37 -29 -82q-29 -43 -70 -43q-49 0 -159 135l-146 182l-82 -143 q-63 -104 -92 -137q-43 -49 -86 -50q-31 0 -51 21q-23 22 -23 49z" />
<glyph unicode="&#xdc;" horiz-adv-x="1353" d="M53 614q0 131 45 336q51 223 103 324q41 74 88 74q63 0 63 -66q0 -12 -4 -33q-12 -35 -78 -280q-45 -162 -45 -285q0 -233 168 -358q152 -111 389 -111q195 0 269 162q51 111 51 332q0 102 -33 284.5t-33 284.5q0 43 39 88t82 45q66 0 107 -274q31 -203 30 -342 q0 -341 -116 -541q-145 -252 -463 -252q-291 0 -473 158q-189 167 -189 454zM340 1579q0 22 18 117q25 123 113 123q70 0 70 -97q0 -23 -17 -90q-16 -80 -28 -106q-27 -57 -88 -58q-68 0 -68 111zM858 1591q0 74 33 146q39 92 102.5 92t63.5 -76q0 -25 -10.5 -82t-10.5 -80 q0 -43 -32 -78q-35 -39 -74 -38q-33 0 -56 43q-16 36 -16 73z" />
<glyph unicode="&#xdd;" horiz-adv-x="1261" d="M29 1044q0 332 139 332q29 0 51 -24q23 -27 23 -58q0 -25 -11 -96q-12 -86 -12 -96q0 -162 90 -264q88 -100 248 -101q143 0 262 74q127 76 166 209q-10 147 -10 225q0 57 31 103q33 51 88 51q96 0 96 -228q0 -98 8 -237q10 -174 10 -240q0 -307 -116 -485 q-137 -209 -435 -209q-96 0 -229 27q-154 27 -215 69q-39 25 -39 60q0 47 33 92q35 47 76 47l16 -4q281 -78 401 -78q123 0 188.5 43t96.5 158q23 86 23 311q-201 -211 -494 -211q-231 0 -360 152q-125 142 -125 378zM512 1524q0 39 35 92l190 297q45 59 88 59q63 0 64 -78 q0 -51 -94 -208q-88 -145 -138 -195q-41 -41 -77 -41q-68 0 -68 74z" />
<glyph unicode="&#xde;" horiz-adv-x="1259" d="M225 82l11 141q3 39 4 62q-10 20 -11 39q0 4 13 53q8 33 8 141q0 166 12 361q-33 14 -33 59q0 63 43 106q0 68 23 216q35 113 123 112q39 0 51 -63q4 -31 4 -107v-65q-2 -33 -2 -66q776 -37 776 -342q0 -342 -825 -461q-8 -127 -19 -168q-27 -98 -114 -98q-64 0 -64 80z M440 469q144 28 344 86q279 80 279 127q0 125 -598 174q-10 -197 -25 -387z" />
<glyph unicode="&#xdf;" horiz-adv-x="1437" d="M207 645q0 260 80 434q100 219 323 273q72 14 162 14q180 0 303 -70q150 -86 150 -252q0 -168 -172 -296q129 -37 223 -121q104 -96 104 -221q0 -201 -182 -310q-156 -96 -364 -96q-180 0 -256 29q-53 23 -54 67q0 49 35 90q33 39 84 39q43 0 108.5 -8t110.5 -8 q88 0 193 33q135 46 135 110q0 78 -123 146q-135 74 -371 73q-82 0 -82 78q0 80 78 131q31 20 131 54q98 31 148 63q70 45 69 104q0 90 -143 129q-82 23 -217 23q-133 0 -195 -59q-102 -96 -102 -459q0 -182 41 -492q43 -326 43 -493q0 -162 -98 -162q-66 0 -66 82 q0 162 -33 397q-43 305 -51 398q-12 151 -12 280z" />
<glyph unicode="&#xe0;" horiz-adv-x="1064" d="M39 53q0 49 162 473l202 525l58 153q37 84 78 146q41 59 86 59q47 0 73 -63q37 -84 68 -230l51 -233q82 -244 215 -727q4 -20 4 -27q0 -46 -37 -92q-37 -47 -79 -47q-53 0 -107 176q-40 -6 -104 -6h-86q-20 0 -49 1t-35 1h-293q-66 -182 -140 -182q-67 -1 -67 73z M301 313h461q-95 289 -191 707q-12 -29 -270 -707zM336 1911q0 49 37 92t84 43q35 0 61 -41l100 -186q35 -51 87 -144q16 -33 16 -49q0 -46 -31 -92q-31 -45 -76 -45q-29 0 -53 22q-41 35 -133 197q-92 164 -92 203z" />
<glyph unicode="&#xe1;" horiz-adv-x="1071" d="M14 53q0 49 162 473l205 525q39 104 55 153q37 84 78 146q41 59 86 59q47 0 74 -63q37 -84 67 -230l54 -233q82 -244 215 -727q2 -10 2 -27q0 -46 -37 -92q-37 -47 -78 -47q-53 0 -106 176q-41 -6 -107 -6h-86q-20 0 -49 1t-35 1h-293q-66 -182 -139 -182q-68 -1 -68 73z M279 313h458q-88 268 -188 707q-12 -29 -270 -707zM530 1563q0 39 35 92q53 88 191 297q43 57 90 57q61 0 61 -78q0 -49 -96 -207q-90 -152 -135 -196q-39 -39 -78 -39q-68 0 -68 74z" />
<glyph unicode="&#xe2;" horiz-adv-x="1081" d="M35 53q0 43 164 473l202 525q39 104 56 153q37 84 78 146q41 59 86 59q47 0 73 -63q41 -94 70 -230q43 -206 49 -233q82 -244 215 -727q4 -20 4 -27q0 -46 -37 -92q-37 -47 -80 -47q-51 0 -104 176q-41 -6 -106 -6h-87q-20 0 -47.5 1t-33.5 1h-295q-66 -182 -140 -182 q-67 -1 -67 73zM233 1538q0 35 115 221q104 168 148 223q49 61 90 61.5t213 -196t172 -241.5q0 -37 -29 -82q-29 -43 -70 -43q-49 0 -159 135l-146 182l-82 -143q-63 -104 -92 -137q-43 -49 -86 -50q-31 0 -51 21q-23 22 -23 49zM299 313h459q-95 289 -191 707 q-4 -12 -9 -25.5t-13 -33t-26.5 -68.5l-43 -114.5l-72 -189.5z" />
<glyph unicode="&#xe3;" horiz-adv-x="1153" d="M57 53q0 43 164 473l205 525q39 104 55 153q39 92 76 146q41 59 88 59t74 -63q37 -84 67 -230l52 -233q82 -244 215 -727q4 -20 4 -27q0 -46 -37 -92q-37 -47 -80 -47q-51 0 -104 176q-41 -6 -107 -6h-86q-20 0 -49 1t-35 1h-293q-66 -182 -139 -182q-70 -1 -70 73z M170 1561q0 86 121 153q106 61 201 62q72 0 182 -51.5t162 -51.5q41 0 94 56q51 53 88 53q31 0 49 -25q20 -27 20 -57q0 -22 -18 -55q-37 -74 -114.5 -125.5t-159.5 -51.5q-66 0 -176.5 51.5t-176.5 51.5q-57 0 -120.5 -43t-83.5 -43q-68 0 -68 76zM324 313h458 q-95 289 -190 707q-4 -12 -9 -25.5t-13.5 -33t-27 -68.5l-43 -114.5l-71.5 -189.5z" />
<glyph unicode="&#xe4;" horiz-adv-x="1112" d="M45 53q0 39 166 473l203 525q39 104 55 153q37 84 78 146q41 59 86 59q47 0 74 -63q37 -84 67 -230l51 -233q82 -244 215 -727q4 -20 4 -27q0 -46 -36 -92q-37 -47 -80 -47q-51 0 -105 176q-41 -6 -106 -6h-86q-20 0 -48 1t-34 1h-295q-66 -182 -139 -182q-70 -1 -70 73z M274 1579q0 10 21 117q22 123 111 123q70 0 69 -97q0 -23 -16 -90q-16 -80 -29 -106q-27 -57 -88 -58q-68 0 -68 111zM311 313h459q-95 289 -190 707q-4 -12 -9.5 -25.5l-13.5 -33t-26.5 -68.5l-43 -114.5l-72 -189.5zM795 1591q0 72 30 146q39 92 102.5 92t63.5 -76 q0 -25 -10 -82t-10 -80q0 -43 -33 -78q-35 -39 -74 -38q-33 0 -55 43q-14 30 -14 73z" />
<glyph unicode="&#xe5;" horiz-adv-x="1128" d="M35 53q0 43 164 473l202 525q39 104 56 153q37 84 78 146q41 59 86 59q47 0 73 -63q41 -94 70 -230q43 -206 49 -233q82 -244 215 -727q4 -20 4 -27q0 -46 -37 -92q-37 -47 -80 -47q-51 0 -104 176q-41 -6 -106 -6h-87q-20 0 -47.5 1t-33.5 1h-295q-66 -182 -140 -182 q-67 -1 -67 73zM299 313h459q-95 289 -191 707q-4 -12 -9 -25.5t-13 -33t-26.5 -68.5l-43 -114.5l-72 -189.5zM311 1825q0 170 90 241q18 80 142 142q104 53 200 53q131 0 225.5 -88t94.5 -219q0 -174 -139 -309q-137 -135 -312 -136q-131 0 -217 93q-84 90 -84 223z M479 1870q0 -76 53.5 -117t129.5 -41q84 0 153 57q68 55 68 140q0 66 -62 106q-55 37 -123 37q-49 0 -102 -27q-45 -27 -92 -51q-25 -69 -25 -104z" />
<glyph unicode="&#xe6;" horiz-adv-x="1792" d="M47 49q0 14 90 250q84 244 275 752q53 133 59 149q33 78 74 146q35 59 88 59q49 0 74 -66q39 -104 65 -235q37 -184 51 -244q33 154 39 268q-35 10 -35 58q0 41 27 84q25 41 64 47q29 23 67 22q18 0 29 -6q74 10 459 35q45 2 84.5 5t57.5 4l17 1q66 0 66 -61 q0 -84 -82 -111q-16 -4 -189 -20q-184 -14 -391 -39q-6 -70 -61 -365q188 37 420 37q86 0 86 -76q0 -92 -92 -114q-27 -8 -138 -17q-141 -14 -305 -22q-2 -27 -2 -78q0 -322 215 -322q84 0 244 50q166 51 242 51q90 0 90 -62q0 -98 -101 -133q-12 -6 -98 -20 q-104 -18 -178 -43q-188 -57 -236 -58q-111 0 -198 60q-86 59 -121 164h-533q-45 -119 -55 -140q-45 -88 -100 -88q-68 0 -68 78zM330 350h424q-90 252 -174 656l-24.5 -64l-30 -79l-71.5 -187.5z" />
<glyph unicode="&#xe8;" horiz-adv-x="1036" d="M51 444q0 131 45 351q45 231 51 348q-35 12 -34 57q0 100 88 125q31 35 69 35q16 0 31 -14q289 43 619 43q63 0 63 -60q0 -78 -84 -108q-29 -10 -186 -21q-115 -8 -391 -39q-8 -76 -64 -360q162 29 414 28q94 0 94 -75q0 -84 -94 -113q-31 -8 -127 -14q-104 -6 -314 -25 q-2 -27 -2 -76q0 -326 215 -325q82 0 238 53t238 53q96 0 96 -63q0 -114 -142 -154l-233 -45l-115 -35q-63 -20 -118 -20q-357 -1 -357 454zM305 1888q0 47 37 90t84 43q37 0 63 -41l101 -186q41 -63 86 -141q14 -29 14 -49q0 -51 -28 -95q-31 -45 -76 -45q-25 0 -54 25 q-39 33 -133 194.5t-94 204.5z" />
<glyph unicode="&#xe9;" horiz-adv-x="1042" d="M35 444q0 131 45 351q41 217 49 348q-33 12 -33 57q0 100 86 125q31 35 72 35q16 0 31 -14q289 43 618 43q63 0 64 -60q0 -78 -84 -108q-27 -10 -189 -21q-115 -8 -391 -39q-8 -96 -61 -360q162 29 413 28q92 0 93 -75q0 -86 -93 -113q-35 -8 -129 -14q-98 -6 -311 -25 q-2 -27 -2 -76q0 -326 213 -325q82 0 237.5 53t239.5 53q94 0 94 -63q0 -114 -141 -154l-231 -45l-115 -35q-63 -20 -119 -20q-356 -1 -356 454zM459 1524q0 39 35 92l190 297q45 59 88 59q63 0 64 -78q0 -51 -95 -208q-88 -145 -137 -195q-41 -41 -78 -41q-67 0 -67 74z " />
<glyph unicode="&#xea;" horiz-adv-x="1052" d="M49 444q0 131 45 351q45 231 51 348q-35 12 -34 57q0 100 88 125q31 35 71 35q16 0 29 -14q289 43 619 43q63 0 63 -60q0 -78 -84 -108q-29 -10 -186 -21q-106 -8 -392 -39q-6 -68 -61 -360q160 29 414 28q92 0 92 -75q0 -86 -92 -113q-35 -8 -129 -14q-104 -6 -314 -25 q-2 -27 -2 -76q0 -326 215 -325q82 0 238 53t238 53q96 0 96 -63q0 -114 -142 -154l-233 -45l-115 -35q-63 -20 -118 -20q-357 -1 -357 454zM201 1538q0 39 112 221q96 158 150 223q49 61 88 62q43 0 215 -196.5t172 -241.5q0 -35 -31 -82q-27 -43 -69 -43q-49 0 -160 135 l-143 182l-82 -143q-59 -96 -95 -137q-43 -49 -86 -50q-31 0 -51 20.5t-20 49.5z" />
<glyph unicode="&#xeb;" horiz-adv-x="1077" d="M57 444q0 115 45 351q45 231 52 348q-35 12 -35 57q0 100 88 125q31 35 72 35q16 0 30 -14q289 43 619 43q61 0 61 -60q0 -78 -84 -108q-29 -10 -186 -21q-115 -8 -391 -39q-8 -96 -62 -360q162 29 414 28q90 0 90 -75q0 -86 -90 -113q-35 -8 -129 -14q-98 -6 -311 -25 q-4 -53 -4 -76q0 -326 215 -325q82 0 237.5 53t239.5 53q94 0 94 -63q0 -114 -141 -154l-232 -45q-18 -6 -57 -17.5l-60 -17.5q-63 -20 -116 -20q-359 -1 -359 454zM229 1579q0 10 21 117q25 123 112 123q70 0 70 -97q0 -23 -16 -90q-14 -70 -31 -106q-27 -57 -86 -58 q-70 0 -70 111zM750 1591q0 74 32 146q41 92 102.5 92t61.5 -76q0 -35 -8 -82q-10 -57 -10 -80q0 -39 -35 -77.5t-72 -38.5q-35 0 -55 43q-16 36 -16 73z" />
<glyph unicode="&#xec;" horiz-adv-x="460" d="M39 1890q0 49 37 92t84 43q33 0 61 -43l101 -184q35 -51 86 -143q16 -33 16 -49q0 -46 -31 -93q-31 -45 -76 -45q-27 0 -53 25q-41 35 -133 194.5t-92 202.5zM143 86q0 139 13 383q16 295 16 381v242q0 295 139 294q63 0 64 -133q0 -139 -16.5 -487t-16.5 -487 q0 -281 -129 -281q-70 0 -70 88z" />
<glyph unicode="&#xed;" horiz-adv-x="468" d="M49 86q0 139 12 383q16 281 19 381v242q0 295 137 294q63 0 64 -133q0 -139 -17 -487q-14 -303 -14 -487q0 -281 -131 -281q-70 0 -70 88zM78 1524q0 41 33 92q53 88 190 297q41 59 90 59q63 0 64 -78q0 -47 -97 -208q-88 -145 -137 -195q-41 -41 -78 -41q-65 0 -65 74z " />
<glyph unicode="&#xee;" horiz-adv-x="776" d="M23 1538q0 35 114 221q104 168 148 223q49 61 90 61.5t213 -196t172 -241.5q0 -35 -31 -82q-29 -43 -70 -43q-49 0 -159 135l-144 182l-82 -143q-59 -96 -94 -137q-43 -49 -84 -50q-31 0 -51 21q-22 22 -22 49zM270 86q0 139 13 383q16 295 16 381v242q0 295 141 294 q61 0 62 -133q0 -184 -15 -487q-16 -348 -16 -487q0 -281 -131 -281q-70 0 -70 88z" />
<glyph unicode="&#xef;" horiz-adv-x="784" d="M39 1579q0 33 16 117q25 123 115 123q70 0 70 -97q0 -14 -19 -90q-16 -80 -28 -106q-27 -57 -87 -58q-67 0 -67 111zM262 86q0 139 12 383q16 281 19 381v242q0 295 139 294q61 0 62 -133q0 -139 -17 -487q-14 -303 -14 -487q0 -281 -131 -281q-70 0 -70 88zM555 1591 q0 70 35 146q41 92 100 92q63 0 64 -76q0 -25 -10.5 -82t-10.5 -80q0 -43 -33 -78q-35 -39 -71 -38q-35 0 -58 43q-16 36 -16 73z" />
<glyph unicode="&#xf1;" horiz-adv-x="1144" d="M68 45q0 127 22 391q27 285 29 389v205q0 336 127 336q25 0 55 -43q45 -68 92 -152l40.5 -73.5t23.5 -42l10 -19.5l8 -16l391 -617q0 51 4 262.5l7 368.5q4 117 4 121q2 70 18 119q33 104 113 104q55 0 55 -80q0 -182 -8 -446t-8 -449q0 -154 -23 -237q-16 -57 -45 -98 q-39 -57 -84 -58q-20 0 -45 29q-47 55 -192 283l-377 614q-18 -383 -35 -633q0 -20 -4 -59t-4 -60q-6 -71 -25 -116q-35 -96 -104 -97q-45 0 -45 74zM150 1561q0 86 120 153q108 61 203 62q72 0 182.5 -51.5t161.5 -51.5q43 0 94 56q51 53 86 53q33 0 51.5 -24.5t18.5 -57.5 q0 -25 -16 -55q-37 -74 -115 -125.5t-162 -51.5q-66 0 -176.5 51.5t-173.5 51.5q-55 0 -121 -43q-65 -43 -86 -43q-67 0 -67 76z" />
<glyph unicode="&#xf2;" horiz-adv-x="1144" d="M68 45q0 127 22 391q27 285 29 389v205q0 336 127 336q25 0 55 -43q45 -68 92 -152l40.5 -73.5t23.5 -42l10 -19.5l8 -16l391 -617q0 51 4 262.5l7 368.5q4 117 4 121q2 70 18 119q33 104 113 104q55 0 55 -80q0 -182 -8 -446t-8 -449q0 -154 -23 -237q-16 -57 -45 -98 q-39 -57 -84 -58q-20 0 -45 29q-47 55 -192 283l-377 614q-18 -383 -35 -633q0 -20 -4 -59t-4 -60q-6 -71 -25 -116q-35 -96 -104 -97q-45 0 -45 74zM150 1561q0 86 120 153q108 61 203 62q72 0 182.5 -51.5t161.5 -51.5q43 0 94 56q51 53 86 53q33 0 51.5 -24.5t18.5 -57.5 q0 -25 -16 -55q-37 -74 -115 -125.5t-162 -51.5q-66 0 -176.5 51.5t-173.5 51.5q-55 0 -121 -43q-65 -43 -86 -43q-67 0 -67 76z" />
<glyph unicode="&#xf3;" d="M43 592q0 197 86 369q88 180 252 280q53 125 313 125q270 0 443 -209q158 -195 157 -473q0 -287 -161 -479q-170 -207 -451 -207q-274 0 -453 160q-186 166 -186 434zM217 664q0 -206 148 -338q139 -125 352 -125q182 0 286.5 118.5t104.5 305.5q0 236 -143 379 q-139 139 -379 139q-47 0 -142 -58q-227 -138 -227 -421zM393 1890q0 49 37 92t84 43q35 0 64 -43l98 -184q47 -72 88 -143q14 -29 14 -49q0 -46 -30 -93q-31 -45 -76 -45q-25 0 -51 25q-41 35 -134 195q-94 163 -94 202z" />
<glyph unicode="&#xf4;" d="M29 592q0 193 88 369q94 184 250 280q53 125 315 125q268 0 440 -209q160 -194 160 -473q0 -287 -162 -479q-170 -207 -452 -207q-274 0 -453 160q-186 166 -186 434zM205 664q0 -206 147 -338q139 -125 350 -125q182 0 287 118.5t105 305.5q0 238 -142 379 q-139 139 -381 139q-45 0 -139 -58q-227 -138 -227 -421zM584 1524q0 39 34 92q53 88 191 297q41 59 88 59q63 0 64 -78q0 -47 -97 -208q-90 -150 -135 -195q-41 -41 -80 -41q-65 0 -65 74z" />
<glyph unicode="&#xf5;" horiz-adv-x="1337" d="M41 592q0 197 86 369q88 180 252 280q53 125 313 125q270 0 443 -209q160 -194 159 -473q0 -287 -161 -479q-170 -207 -453 -207q-274 0 -453 160q-186 166 -186 434zM217 664q0 -206 148 -338q139 -125 350 -125q182 0 286.5 118.5t104.5 305.5q0 236 -143 379 q-139 139 -379 139q-45 0 -140 -58q-227 -138 -227 -421zM322 1538q0 39 112 221q96 158 150 223q49 61 88 62q43 0 215 -196.5t172 -241.5q0 -35 -31 -82q-29 -43 -70 -43q-49 0 -159 135l-144 182l-82 -143q-59 -96 -94 -137q-43 -49 -86 -50q-31 0 -51 20.5t-20 49.5z " />
<glyph unicode="&#xf6;" horiz-adv-x="1363" d="M51 592q0 197 86 369q92 182 252 280q53 125 313 125q273 0 443 -209q160 -194 160 -473q0 -287 -162 -479q-170 -207 -455 -207q-272 0 -450 160q-187 166 -187 434zM227 664q0 -206 148 -338q139 -125 350 -125q182 0 286.5 118.5t104.5 305.5q0 236 -143 379 q-139 139 -379 139q-45 0 -139 -58q-228 -138 -228 -421zM268 1561q0 86 121 153q108 61 203 62q70 0 180.5 -51.5t163.5 -51.5q39 0 92 56q51 53 88 53q33 0 51.5 -24.5t18.5 -57.5q0 -25 -17 -55q-37 -72 -116 -125q-78 -51 -160 -52q-66 0 -176.5 51.5t-175.5 51.5 q-53 0 -119 -43q-65 -43 -86 -43q-68 0 -68 76z" />
<glyph unicode="&#xf7;" horiz-adv-x="823" d="M49 690q0 145 244 146h389q88 0 88 -64q0 -104 -98 -133q-41 -10 -135 -10q-53 0 -203 -11q-121 -8 -205 -8q-80 0 -80 80zM279 307q0 57 36 119q41 72 97 72q72 0 71 -90q0 -59 -37 -119q-39 -63 -98 -64q-33 0 -51 24.5t-18 57.5zM352 1026q0 53 35 111q39 61 94 61 q72 0 72 -80q0 -53 -39 -108q-43 -57 -96 -58q-66 0 -66 74z" />
<glyph unicode="&#xf8;" d="M41 592q0 197 86 369q88 180 252 280q53 125 313 125q70 0 139 -16q23 94 39 127q37 72 99 71q70 0 69 -78q0 -33 -41 -190q147 -90 224 -258q74 -157 73 -338q0 -287 -161 -479q-170 -207 -453 -207q-78 0 -135 10q-8 -25 -16.5 -46l-14.5 -36l-51 -155 q-43 -92 -117 -92.5t-74 69.5q0 29 103 311q-162 76 -248 215q-86 142 -86 318zM217 664q0 -268 234 -398l315 852q-86 25 -182 25q-45 0 -140 -58q-227 -138 -227 -421zM621 209q57 -8 94 -8q182 0 286.5 118.5t104.5 305.5q0 272 -180 413q-49 -153 -305 -829z" />
<glyph unicode="&#xf9;" d="M45 614q0 123 47 336q51 223 103 324q39 74 88 74q61 0 61 -66q0 -23 -2 -33q0 -2 -8 -30.5l-28.5 -100l-41.5 -149.5q-47 -170 -47 -285q0 -233 168 -358q152 -111 391 -111q193 0 266 162q51 111 52 332q0 102 -33 284.5t-33 284.5q0 41 41 88q39 45 82 45 q63 0 104 -274q31 -203 31 -342q0 -344 -115 -541q-145 -252 -462 -252q-291 0 -473 158q-191 168 -191 454zM408 1890q0 47 38 92q37 43 82 43q37 0 64 -43l98 -184q47 -72 88 -143q16 -33 17 -49q0 -46 -31 -93q-31 -45 -76 -45q-25 0 -53 25q-35 29 -133 195 q-94 157 -94 202z" />
<glyph unicode="&#xfa;" d="M35 614q0 131 45 336q51 223 102 324q39 74 88 74q63 0 64 -66q0 -12 -4 -33q0 -2 -7.5 -29.5l-29 -103.5t-39.5 -147q-47 -170 -47 -285q0 -231 168 -358q150 -111 391 -111q190 0 264 162q51 111 51 332q0 102 -32 284q-31 170 -31 285q0 43 39 88t82 45q63 0 104 -274 q33 -217 33 -342q0 -341 -117 -541q-145 -252 -463 -252q-291 0 -473 158q-188 167 -188 454zM580 1524q0 41 32 92q29 47 193 297q41 59 88 59q63 0 63 -78q0 -47 -96 -208q-86 -141 -135 -195q-41 -41 -80 -41q-65 0 -65 74z" />
<glyph unicode="&#xfb;" horiz-adv-x="1339" d="M45 614q0 123 47 336q51 223 103 324q39 74 88 74q61 0 61 -66q0 -23 -2 -33q0 -2 -8 -30.5l-28.5 -100l-41.5 -149.5q-47 -170 -47 -285q0 -233 168 -358q152 -111 391 -111q193 0 266 162q51 111 52 332q0 102 -33 284.5t-33 284.5q0 41 41 88q39 45 82 45 q63 0 104 -274q31 -203 31 -342q0 -344 -115 -541q-145 -252 -462 -252q-291 0 -473 158q-191 168 -191 454zM315 1538q0 35 115 221q104 168 148 223q49 61 90 61.5t213 -196t172 -241.5q0 -37 -29 -82q-29 -43 -70 -43q-49 0 -159 135l-146 182l-82 -143 q-63 -104 -92 -137q-43 -49 -86 -50q-31 0 -51 21q-23 22 -23 49z" />
<glyph unicode="&#xfc;" horiz-adv-x="1353" d="M53 614q0 131 45 336q51 223 103 324q41 74 88 74q63 0 63 -66q0 -12 -4 -33q-12 -35 -78 -280q-45 -162 -45 -285q0 -233 168 -358q152 -111 389 -111q195 0 269 162q51 111 51 332q0 102 -33 284.5t-33 284.5q0 43 39 88t82 45q66 0 107 -274q31 -203 30 -342 q0 -341 -116 -541q-145 -252 -463 -252q-291 0 -473 158q-189 167 -189 454zM340 1579q0 22 18 117q25 123 113 123q70 0 70 -97q0 -23 -17 -90q-16 -80 -28 -106q-27 -57 -88 -58q-68 0 -68 111zM858 1591q0 74 33 146q39 92 102.5 92t63.5 -76q0 -25 -10.5 -82t-10.5 -80 q0 -43 -32 -78q-35 -39 -74 -38q-33 0 -56 43q-16 36 -16 73z" />
<glyph unicode="&#xfd;" horiz-adv-x="1261" d="M29 1044q0 332 139 332q29 0 51 -24q23 -27 23 -58q0 -25 -11 -96q-12 -86 -12 -96q0 -162 90 -264q88 -100 248 -101q143 0 262 74q127 76 166 209q-10 147 -10 225q0 57 31 103q33 51 88 51q96 0 96 -228q0 -98 8 -237q10 -174 10 -240q0 -307 -116 -485 q-137 -209 -435 -209q-96 0 -229 27q-154 27 -215 69q-39 25 -39 60q0 47 33 92q35 47 76 47l16 -4q281 -78 401 -78q123 0 188.5 43t96.5 158q23 86 23 311q-201 -211 -494 -211q-231 0 -360 152q-125 142 -125 378zM512 1524q0 39 35 92l190 297q45 59 88 59q63 0 64 -78 q0 -51 -94 -208q-88 -145 -138 -195q-41 -41 -77 -41q-68 0 -68 74z" />
<glyph unicode="&#xfe;" horiz-adv-x="1259" d="M225 82l11 141q3 39 4 62q-10 20 -11 39q0 4 13 53q8 33 8 141q0 166 12 361q-33 14 -33 59q0 63 43 106q0 68 23 216q35 113 123 112q39 0 51 -63q4 -31 4 -107v-65q-2 -33 -2 -66q776 -37 776 -342q0 -342 -825 -461q-8 -127 -19 -168q-27 -98 -114 -98q-64 0 -64 80z M440 469q144 28 344 86q279 80 279 127q0 125 -598 174q-10 -197 -25 -387z" />
<glyph unicode="&#xff;" horiz-adv-x="1290" d="M49 1044q0 332 139 332q29 0 52 -24q20 -23 20 -58q0 -39 -8 -96q-10 -72 -10 -96q0 -164 88 -264.5t250 -100.5q141 0 260 74q127 76 166 209q-10 147 -11 225q0 57 31 103q33 51 88 51q96 0 96 -228q0 -98 9 -237q10 -174 10 -240q0 -303 -119 -485 q-139 -209 -432 -209q-96 0 -229 27q-154 27 -216 69q-39 25 -38 60q0 43 32 92q31 47 76 47q2 0 19 -4q281 -78 399 -78q123 0 188.5 43t96.5 158q20 80 20 311q-201 -211 -489 -211q-233 0 -363 152q-125 142 -125 378zM289 1579q0 22 18 117q25 123 113 123q70 0 69 -97 q0 -23 -16 -90q-16 -80 -29 -106q-27 -57 -88 -58q-67 0 -67 111zM807 1591q0 74 33 146q41 92 102 92q63 0 64 -76q0 -25 -10.5 -82t-10.5 -80q0 -43 -33 -78q-35 -39 -73 -38q-35 0 -56 43q-16 36 -16 73z" />
<glyph unicode="&#x152;" horiz-adv-x="2398" d="M193 614q0 193 86 365q90 176 247 274q16 47 66 76q78 47 246 47q328 0 497 -293l2 45q-37 12 -37 58q0 53 53.5 106.5t104.5 53.5q16 0 33 -13q35 6 451 35q41 2 80.5 5t57 4t21.5 1q63 0 64 -61q0 -84 -86 -111q-20 -8 -183 -20q-150 -12 -387 -39q-10 -109 -57 -356 q166 33 412 32q86 0 86 -75q0 -92 -92 -113l-16 -1q-15 -1 -52 -4t-78 -5q-82 -12 -285 -33q-8 -53 -8 -74q0 -317 213 -317q82 0 233.5 51t235.5 51q98 0 99 -61q0 -95 -99 -136q-55 -20 -135 -34q-84 -12 -135 -27l-117 -35q-63 -20 -119 -20q-117 0 -204 61 q-90 63 -119 174q-170 -209 -457 -209q-266 0 -444 166t-178 432zM365 678q0 -199 151 -328q143 -125 346 -125q176 0 285 121q100 113 100 295q0 238 -139 375t-377 137q-45 0 -139 -57q-102 -61 -166 -176q-61 -111 -61 -242z" />
<glyph unicode="&#x153;" horiz-adv-x="2398" d="M193 614q0 193 86 365q90 176 247 274q16 47 66 76q78 47 246 47q328 0 497 -293l2 45q-37 12 -37 58q0 53 53.5 106.5t104.5 53.5q16 0 33 -13q35 6 451 35q41 2 80.5 5t57 4t21.5 1q63 0 64 -61q0 -84 -86 -111q-20 -8 -183 -20q-150 -12 -387 -39q-10 -109 -57 -356 q166 33 412 32q86 0 86 -75q0 -92 -92 -113l-16 -1q-15 -1 -52 -4t-78 -5q-82 -12 -285 -33q-8 -53 -8 -74q0 -317 213 -317q82 0 233.5 51t235.5 51q98 0 99 -61q0 -95 -99 -136q-55 -20 -135 -34q-84 -12 -135 -27l-117 -35q-63 -20 -119 -20q-117 0 -204 61 q-90 63 -119 174q-170 -209 -457 -209q-266 0 -444 166t-178 432zM365 678q0 -199 151 -328q143 -125 346 -125q176 0 285 121q100 113 100 295q0 238 -139 375t-377 137q-45 0 -139 -57q-102 -61 -166 -176q-61 -111 -61 -242z" />
<glyph unicode="&#x160;" horiz-adv-x="1441" d="M119 932q0 219 237 336q188 94 432 94q395 0 396 -209q0 -57 -43 -137q-51 -88 -105 -88q-33 0 -53 30q-18 25 -18 62q0 45 24 78q-80 49 -258 49q-274 0 -405 -121q-25 -23 -25 -41q0 -137 250 -211l459 -127q248 -100 247 -301q0 -186 -157 -276q-127 -76 -330 -76 q-111 0 -264 24q-178 27 -250 70q-55 35 -55 82q0 51 35 90q35 37 88 37q31 0 153 -31q194 -49 375 -49q72 0 129 14q88 18 88 60q0 108 -246 178q-420 119 -458 137q-246 114 -246 326zM430 1845q0 45 33 90t76 45q23 0 51 -28q29 -31 100 -131q51 -72 101 -131 q61 40 135 116l125 127q41 35 67 35q59 0 60 -80q0 -37 -25 -78q-47 -78 -174 -188.5t-211 -146.5q-14 -6 -27 -7q-27 0 -53 21q-43 31 -131 141q-88 109 -113 162q-14 26 -14 53z" />
<glyph unicode="&#x161;" horiz-adv-x="1441" d="M119 932q0 219 237 336q188 94 432 94q395 0 396 -209q0 -57 -43 -137q-51 -88 -105 -88q-33 0 -53 30q-18 25 -18 62q0 45 24 78q-80 49 -258 49q-274 0 -405 -121q-25 -23 -25 -41q0 -137 250 -211l459 -127q248 -100 247 -301q0 -186 -157 -276q-127 -76 -330 -76 q-111 0 -264 24q-178 27 -250 70q-55 35 -55 82q0 51 35 90q35 37 88 37q31 0 153 -31q194 -49 375 -49q72 0 129 14q88 18 88 60q0 108 -246 178q-420 119 -458 137q-246 114 -246 326zM430 1845q0 45 33 90t76 45q23 0 51 -28q29 -31 100 -131q51 -72 101 -131 q61 40 135 116l125 127q41 35 67 35q59 0 60 -80q0 -37 -25 -78q-47 -78 -174 -188.5t-211 -146.5q-14 -6 -27 -7q-27 0 -53 21q-43 31 -131 141q-88 109 -113 162q-14 26 -14 53z" />
<glyph unicode="&#x178;" horiz-adv-x="1513" d="M147 1044q0 332 138 332q31 0 53 -24q20 -23 20 -58q0 -25 -10 -96.5t-10 -95.5q0 -164 88 -264.5t250 -100.5q143 0 262 74q127 76 166 209q-12 131 -12 225q0 57 30 103q33 51 90 51q94 0 95 -228q0 -63 10 -237q8 -139 8 -240q0 -307 -117 -485q-139 -209 -434 -209 q-94 0 -227 27q-154 27 -215 69q-39 25 -39 60q0 51 31 92q35 47 77 47l17 -4q281 -78 399 -78q125 0 189 43q68 45 98 158q20 80 20 311q-205 -211 -491 -211q-233 0 -363 152q-123 145 -123 378zM385 1579q0 22 18 117q25 123 113 123q72 0 72 -97q0 -14 -19 -90 q-16 -80 -28 -106q-27 -57 -86 -58q-70 0 -70 111zM905 1591q0 68 33 146q41 92 100 92q66 0 66 -76q0 -12 -12 -82q-10 -57 -11 -80q0 -43 -32 -78q-35 -39 -72 -38q-35 0 -57 43q-15 30 -15 73z" />
<glyph unicode="&#x17d;" horiz-adv-x="1517" d="M137 1243q0 53 35 94t86 41q8 0 188 -10q33 -2 159 -6t222 -8l184.5 -7.5t131.5 -5.5t49 -2q98 0 98 -65q0 -41 -30 -100q-61 -113 -265 -353l-549 -620q121 2 445 35q297 29 444 28q61 0 62 -65q0 -90 -97 -131q-41 -18 -272 -35q-602 -39 -782 -39q-86 0 -86 74 q0 45 28 94q47 80 125 164l144 149q203 221 571 670q-520 27 -692 26q-94 0 -143 13q-56 16 -56 59zM453 1845q0 45 32.5 90t75.5 45q20 0 49 -28q39 -41 103 -131q63 -88 98 -131q61 40 135 116l127 127q41 35 68 35q59 0 59 -80q0 -37 -24 -78q-47 -78 -174.5 -188.5 t-210.5 -146.5q-16 -6 -27 -7q-27 0 -53 21q-43 31 -131 141q-88 109 -113 162q-14 26 -14 53z" />
<glyph unicode="&#x17e;" horiz-adv-x="1517" d="M137 1243q0 53 35 94t86 41q8 0 188 -10q33 -2 159 -6t222 -8l184.5 -7.5t131.5 -5.5t49 -2q98 0 98 -65q0 -41 -30 -100q-61 -113 -265 -353l-549 -620q121 2 445 35q297 29 444 28q61 0 62 -65q0 -90 -97 -131q-41 -18 -272 -35q-602 -39 -782 -39q-86 0 -86 74 q0 45 28 94q47 80 125 164l144 149q203 221 571 670q-520 27 -692 26q-94 0 -143 13q-56 16 -56 59zM453 1845q0 45 32.5 90t75.5 45q20 0 49 -28q39 -41 103 -131q63 -88 98 -131q61 40 135 116l127 127q41 35 68 35q59 0 59 -80q0 -37 -24 -78q-47 -78 -174.5 -188.5 t-210.5 -146.5q-16 -6 -27 -7q-27 0 -53 21q-43 31 -131 141q-88 109 -113 162q-14 26 -14 53z" />
<glyph unicode="&#x2c6;" horiz-adv-x="985" d="M127 1538q0 35 115 221q104 168 147 223q49 61 88 62q43 0 215 -196.5t172 -241.5q0 -37 -28 -82q-29 -43 -70 -43q-51 0 -162 135l-143 182l-82 -143q-59 -96 -94 -137q-43 -49 -84 -50q-31 0 -51 21q-23 22 -23 49z" />
<glyph unicode="&#x2c7;" horiz-adv-x="1024" d="M156 1845q0 45 32.5 90t75.5 45q20 0 49 -28q39 -41 103 -131q63 -88 98 -131q61 40 135 116l127 127q41 35 68 35q59 0 59 -80q0 -37 -24 -78q-47 -78 -174 -188.5t-211 -146.5q-14 -6 -27 -7q-27 0 -53 21q-43 31 -131 141q-88 109 -113 162q-14 26 -14 53z" />
<glyph unicode="&#x2c9;" horiz-adv-x="1142" d="M219 1548q0 98 103 129q55 16 182 17h348q90 0 90 -64q0 -111 -98 -135q-23 -4 -172 -10q-113 -4 -218.5 -9.5t-136 -6.5t-18.5 -1q-80 0 -80 80z" />
<glyph unicode="&#x2da;" horiz-adv-x="1089" d="M170 1782q0 170 90 241q18 78 143 142q104 53 201 53q137 0 225 -86q92 -89 93 -221q0 -174 -138 -309q-135 -133 -311 -134q-133 0 -217 91q-86 92 -86 223zM340 1827q0 -76 53 -117q51 -39 129 -39q86 0 154 55q66 53 65 140q0 68 -59 106q-55 37 -125 37 q-47 0 -100 -27q-72 -39 -92 -51q-25 -61 -25 -104z" />
<glyph unicode="&#x2dc;" horiz-adv-x="1298" d="M184 1561q0 86 121 153q108 61 203 62q72 0 182.5 -51.5t161.5 -51.5q41 0 94 56q51 53 86 53q29 0 51 -25q20 -23 21 -57q0 -22 -19 -55q-33 -70 -116 -125q-78 -51 -160 -52q-66 0 -176.5 51.5t-175.5 51.5q-55 0 -119 -43t-84 -43q-70 0 -70 76z" />
<glyph unicode="&#x2000;" horiz-adv-x="1128" />
<glyph unicode="&#x2001;" horiz-adv-x="2260" />
<glyph unicode="&#x2002;" horiz-adv-x="1128" />
<glyph unicode="&#x2003;" horiz-adv-x="2260" />
<glyph unicode="&#x2004;" horiz-adv-x="751" />
<glyph unicode="&#x2005;" horiz-adv-x="563" />
<glyph unicode="&#x2006;" horiz-adv-x="374" />
<glyph unicode="&#x2007;" horiz-adv-x="374" />
<glyph unicode="&#x2008;" horiz-adv-x="280" />
<glyph unicode="&#x2009;" horiz-adv-x="450" />
<glyph unicode="&#x200a;" horiz-adv-x="124" />
<glyph unicode="&#x2010;" horiz-adv-x="1144" d="M221 690q0 100 103 131q49 14 182 15h348q90 0 90 -64q0 -109 -98 -133q-23 -4 -174 -10l-371 -19q-80 0 -80 80z" />
<glyph unicode="&#x2011;" horiz-adv-x="1144" d="M221 690q0 100 103 131q49 14 182 15h348q90 0 90 -64q0 -109 -98 -133q-23 -4 -174 -10l-371 -19q-80 0 -80 80z" />
<glyph unicode="&#x2012;" horiz-adv-x="1144" d="M221 690q0 100 103 131q49 14 182 15h348q90 0 90 -64q0 -109 -98 -133q-23 -4 -174 -10l-371 -19q-80 0 -80 80z" />
<glyph unicode="&#x2013;" horiz-adv-x="962" d="M217 690q0 113 107 133q66 14 184 15q47 0 84 -2h86q90 0 90 -64q0 -109 -98 -133q-31 -8 -86 -8q-31 -2 -86 -2q-4 0 -38 -3t-63 -8q-86 -8 -100 -8q-80 0 -80 80z" />
<glyph unicode="&#x2014;" d="M227 690q0 96 84 125q51 16 162 19q78 2 186 2h369q92 0 92 -64q0 -109 -98 -133q-20 -4 -174 -10q-445 -18 -541 -19q-80 0 -80 80z" />
<glyph unicode="&#x2018;" horiz-adv-x="477" d="M139 1274q0 34 25 61q27 31 57 31q27 0 47 -31q92 -369 92 -379q0 -35 -30 -75q-29 -37 -66 -37q-27 0 -43 35q-29 55 -55 192q-27 140 -27 203z" />
<glyph unicode="&#x2019;" horiz-adv-x="489" d="M125 913q0 68 29 185q27 109 57 182q39 86 96 86q66 0 66 -78q0 -2 -8 -35q-23 -119 -82 -321q-31 -78 -99 -78q-59 0 -59 59z" />
<glyph unicode="&#x201a;" horiz-adv-x="487" d="M125 -217q0 68 29 184q27 109 57 183q39 86 96 86q66 0 66 -76q0 -4 -8 -37q-25 -125 -82 -322q-31 -78 -99 -77q-59 0 -59 59z" />
<glyph unicode="&#x201c;" horiz-adv-x="976" d="M197 1264q0 37 22 61q27 31 60 31q25 0 45 -31l92 -381q0 -33 -31 -74q-29 -37 -63 -36q-27 0 -43 34q-31 61 -58 195q-24 129 -24 201zM520 1255q0 43 33 86q29 37 78 37q37 0 57 -37q23 -43 53 -192q29 -143 29 -207q0 -47 -33 -82q-33 -37 -75 -37q-37 0 -56 60 l-55 229q-31 129 -31 143z" />
<glyph unicode="&#x201d;" horiz-adv-x="974" d="M197 913q0 68 28 185q29 119 58 182q41 86 98 86q63 0 63 -78q0 -2 -8 -35q-23 -119 -82 -321q-31 -78 -98 -78q-59 0 -59 59zM520 942q0 41 64 182q59 137 92 183q41 59 90 59q61 0 61 -74q0 -33 -16 -65q-35 -78 -135 -275q-40 -80 -92 -80q-64 0 -64 70z" />
<glyph unicode="&#x201e;" horiz-adv-x="972" d="M197 -213q0 68 28 184q27 109 58 183q41 86 98 86q63 0 63 -78q0 -2 -8 -35q-25 -125 -82 -322q-31 -78 -98 -77q-59 0 -59 59zM520 -184q0 41 64 182q57 133 92 180q41 61 90 62q61 0 61 -74q0 -33 -16 -66q-47 -102 -135 -274q-40 -80 -92 -80q-64 0 -64 70z" />
<glyph unicode="&#x2020;" horiz-adv-x="919" d="M68 868q0 51 38 103q37 49 88.5 49t135.5 -14q0 31 -6 112q-6 70 -7 113q0 53 39 98q41 47 88 47q43 0 58 -67q10 -45 16 -334q121 -18 168 -27q100 -16 162 -39q57 -20 57 -65q0 -49 -39 -94t-86 -45q-86 0 -262 28q-4 -420 -22 -770q-4 -98 -23 -231 q-25 -106 -106 -107q-63 0 -64 80q0 123 14 533q16 381 17 528q-68 6 -203 31q-63 18 -63 71z" />
<glyph unicode="&#x2021;" horiz-adv-x="948" d="M84 868.5q0 53.5 37 102.5t90 49q47 0 133 -14q0 8 -2 44.5t-4 67.5q-4 47 -4 113q0 53 39 98q41 47 88 47q43 0 55 -67q12 -86 19 -334q55 -10 165 -27q109 -20 164.5 -38.5t55.5 -65.5q0 -49 -39 -94t-86 -45q-82 0 -260 28q0 -86 -5 -221q133 -4 328 -29 q57 -14 57 -63q0 -47 -26 -86q-29 -41 -72 -49q-12 -2 -63 -2q-133 0 -230 8q0 -47 -4 -140.5t-4 -140.5q-6 -158 -29 -278q-20 -106 -104 -107q-63 0 -64 80q0 72 19 606q-109 14 -129 19q-80 23 -80 84q0 49 35 96q33 45 82 45q6 0 98 -18q4 172 4 229q-70 6 -201 31 q-63 18 -63 71.5z" />
<glyph unicode="&#x2022;" horiz-adv-x="1470" d="M172 547q0 221 174 407q176 188 395 189q238 0 392 -129q164 -139 163 -373q0 -238 -204 -387q-184 -135 -430 -135q-203 0 -340 110q-150 119 -150 318z" />
<glyph unicode="&#x2026;" horiz-adv-x="1329" d="M229 135q0 55 33 96q33 43 82 43q74 0 74 -86q0 -188 -117 -188q-72 0 -72 135zM565 74q0 57 37 119q39 70 96 69q72 0 72 -88q0 -63 -37 -119q-39 -63 -98 -63q-33 0 -51.5 24.5t-18.5 57.5zM934 68q0 53 39 114q37 59 90 60q72 0 72 -82q0 -57 -39 -110.5t-97 -53.5 q-65 0 -65 72z" />
<glyph unicode="&#x202f;" horiz-adv-x="450" />
<glyph unicode="&#x2030;" horiz-adv-x="2256" d="M176 915q0 147 100 295q106 158 250 158q127 0 222 -106q96 -109 96 -236q0 -162 -94 -268q-98 -117 -258 -117q-125 0 -220 72q-96 79 -96 202zM336 10q0 20 20 60q111 213 338 581q221 360 340 580q68 123 74 135q57 90 104 90q35 0 52 -22q18 -25 18 -56 q0 -100 -309 -612l-398 -649q-20 -37 -77 -127q-43 -57 -84 -58q-33 0 -56 25q-22 26 -22 53zM350 991q0 -66 56 -108q51 -39 120 -39q51 0 96.5 28.5t45.5 79.5q0 72 -68 140q-63 57 -137 79q-113 -69 -113 -180zM766 299q0 80 33 160q33 88 88 137q41 35 65 35q12 0 17 -2 q29 109 172 108q133 0 217 -98q76 -88 76 -225q0 -172 -113 -297q-115 -127 -283 -127q-127 0 -202 94q-70 88 -70 215zM938 356q0 -66 49 -114q51 -51 115 -52q66 0 112 56q45 53 46 121q0 76 -54 122q-47 39 -129 39q-16 0 -30 -2q-20 -2 -33 0q-6 -25 -45 -77 q-31 -41 -31 -93zM1495 285q0 145 109 297q-2 8 -2 26q0 162 219 162q145 0 247 -102q100 -100 101 -248q0 -168 -131 -293q-133 -127 -299 -127q-113 0 -180 88q-64 78 -64 197zM1669 323.5q0 -53.5 37 -84t88 -30.5q70 0 131.5 43t61.5 113q0 72 -60 135q-58 61 -135 61 q-20 0 -45 -6q0 -35 -39 -106.5t-39 -125z" />
<glyph unicode="&#x2039;" horiz-adv-x="817" d="M51 399q0 59 62 115q29 29 211 137q180 106 208 107q33 0 54 -25q20 -23 20 -59q0 -68 -82 -123l-202 -121q92 -74 151 -127q109 -98 109 -147q0 -45 -29 -90q-31 -51 -78 -52q-31 0 -201 144q-178 150 -200 184q-23 32 -23 57z" />
<glyph unicode="&#x203a;" horiz-adv-x="909" d="M227 59q0 59 45 111q49 53 160 129q133 90 172 121l-176 94q-111 61 -158 115q-33 35 -32 71q0 49 30.5 98.5t77.5 49.5q23 0 88 -47q61 -41 92 -64q16 -12 158 -86q104 -57 145 -100q39 -39 39 -82q0 -45 -39 -92q-45 -57 -268 -223q-227 -170 -278 -170q-56 -1 -56 75z " />
<glyph unicode="&#x205f;" horiz-adv-x="563" />
<glyph unicode="&#x20ac;" horiz-adv-x="1892" d="M203 721q0 106 119 135q15 3 202 12q113 199 340 346q233 154 455 154q98 0 194 -43q111 -51 150 -125q14 -23 14 -47q0 -37 -24 -74q-23 -35 -62 -35l-106 68q-115 70 -199 70q-147 0 -309 -92q-143 -80 -254 -207q174 10 405 10q102 0 103 -68q0 -106 -98 -137 q-27 -8 -160 -12q-224 -3 -357 -12v-23q0 -68 33 -131q8 2 326 27q207 20 319 61l25 10q45 0 45 -69q0 -88 -90 -125q-23 -10 -125 -27q-125 -16 -342 -49q164 -106 397 -107q152 0 330 66q31 10 39 10q51 0 51 -65q0 -78 -70 -129q-59 -45 -190 -72q-114 -25 -209 -25 q-180 0 -344 70q-170 74 -274 211q-190 -29 -226 -29q-57 0 -57 68q0 82 59 110q39 20 133 29q-10 51 -10 96q0 27 8 80q-143 -10 -170 -10q-71 0 -71 80z" />
<glyph unicode="&#x2122;" horiz-adv-x="1202" d="M135 557q0 25 19 47q18 20 47 21q51 0 194 20q129 18 197 19q27 0 39 -9.5t8 -29.5q57 -133 92 -277q25 98 82 256q23 43 53 43q18 0 31 -31l31 -116q14 -63 41 -152q23 -78 22 -151q0 -23 -20 -43q-23 -23 -41 -23q-14 0 -25 23q0 2 -2 11l-6 26.5t-10 37.5 q-23 80 -47 191q-16 -59 -82 -230q-20 -43 -47 -43q-31 0 -35 37q-22 34 -43 123q-8 37 -17.5 70l-17.5 63q-4 -23 -8 -68.5t-8 -68.5q-12 -80 -31 -133q-12 -41 -43 -41q-37 0 -37 39q0 53 66 391q-37 -6 -172 -20q14 -27 14 -70q0 -39 -10 -86q-8 -39 -15 -84v-49 q0 -86 -45 -86q-29 0 -28 94q0 131 6 274q-70 -4 -101 -4q-51 0 -51 29z" />
<glyph unicode="&#xe000;" horiz-adv-x="1410" d="M0 1410h1410v-1410h-1410v1410z" />
</font>
</defs>
</svg>
